Telecharger L'Etoile du Nord [DVDRiP] French

(TRUEFRENCH = Vraie voix française)

Qualité DVDRiP | TRUEFRENCH

L'Etoile du Nord

L'Etoile du Nord

Origine du film : Français
Réalisateur : Pierre Granier-Deferre
Acteurs : Philippe Noiret, Fanny Cottençon, Simone Signoret
Genre : Drame, Policier, Thriller
Durée : 2h0min
Date de sortie : 31 mars 1982
Année de production : 1982
Note spectateurs : L'Etoile du Nord

; »>3,2/5 (66)

L'Etoile du Nord

Sur le bateau qui le ramene d’Egypte en Europe, Edouard Binet fait la connaissance d’une jolie aventuriere, Sylvie Baron. Il la met en relation avec un riche negociant qui voyage sur l’Etoile du Nord.
98891″ style= »display:inline; »>

L'Etoile du Nord

Format : XviD

L'Etoile du Nord

L.Etoile.Du.Nord.1982.FRENCH.DVDRip.Xvid-NOTAG

(700 Mo)

Uptobox
Télécharger

Uploaded
Télécharger

TurboBit
Télécharger

Rapidgator
Télécharger

Uplea
Télécharger

1fichier
Télécharger

NFO :

Afficher / Masquer le texte 2df70e7a35387c203a9ecc02d0fc9345″ class= »text_spoiler » style= »display:none; »>General
Complete name : L.Etoile.Du.Nord.1982.FRENCH.DVDRip.Xvid-NOTAG.avi-t.avi
Format : AVI
Format/Info : Audio Video Interleave
File size : 700 MiB
Duration : 1h 58mn
Overall bit rate : 825 Kbps
Writing application : VirtualDubMod 1.5.4.1 (build 2117/release)
Writing library : VirtualDubMod build 2117/release

Video
ID : 0
Format : MPEG-4 Visual
Format profile : Advanced [email protected]
Format settings, BVOP : 1
Format settings, QPel : No
Format settings, GMC : No warppoints
Format settings, Matrix : Default (MPEG)
Muxing mode : Packed bitstream
Codec ID : XVID
Codec ID/Hint : XviD
Duration : 1h 58mn
Bit rate : 719 Kbps
Width : 528 pixels
Height : 320 pixels
Display aspect ratio : 1.650
Frame rate : 25.000 fps
Color space : YUV
Chroma subsampling : 4:2:0
Bit depth : 8 bits
Scan type : Progressive
Compression mode : Lossy
Bits/(Pixel*Frame) : 0.170
Stream size : 610 MiB (87%)
Writing library : XviD 1.0.2 (UTC 2004-08-29)

Audio
ID : 1
Format : MPEG Audio
Format version : Version 1
Format profile : Layer 3
Mode : Joint stereo
Mode extension : MS Stereo
Codec ID : 55
Codec ID/Hint : MP3
Duration : 1h 58mn
Bit rate mode : Constant
Bit rate : 96.0 Kbps
Channel(s) : 2 channels
Sampling rate : 48.0 KHz
Compression mode : Lossy
Delay relative to video : 24ms
Stream size : 81.4 MiB (12%)
Alignment : Aligned on interleaves
Interleave, duration : 40 ms (1.00 video frame)
Interleave, preload duration : 504 ms

Jeux Gratuit
15354131_1854970838071206_1069261547_o.png