Telecharger L'Homme, l'orgueil et la vengeance [DVDRiP] French

Qualité BLURAY 1080p | MULTiLANGUES

L'Homme, l'orgueil et la vengeance

L'Homme, l'orgueil et la vengeance

Origine du film : Italien
Réalisateur : Luigi Bazzoni
Acteurs : Franco Nero, Klaus Kinski, Tina Aumont
Genre : Western
Durée : 1h31min
Année de production : 1968
Titre Original : L’uomo, l’orgoglio, la vendetta
Note spectateurs : L'Homme, l'orgueil et la vengeance

; »>2,8/5 (6)

L'Homme, l'orgueil et la vengeance

Après avoir laissé s’évader de prison la belle Carmen, l’officier Don José baisse de grade. Plus tard, le hasard réunit à nouveau, à l’air libre, le gardien et l’évadée. Ils s’aiment et se déchirent…
101353″ style= »display:inline; »>

L'Homme, l'orgueil et la vengeance

Format : MKV
Découpé avec : Winrar

L'Homme, l'orgueil et la vengeance

l’homme l’orgueil et la vengeance 1968 MULTi 1080p X264-NoTaG

(5989 Mo)

[Liens Interchangeables entre hébergeurs: 5x 1000 Mo + 1x 989 Mo]

Uptobox
Télécharger

Uplea
Télécharger

1fichier
Télécharger

Uploaded
Télécharger

Rapidgator
Télécharger

TurboBit
Télécharger

[ Liens Premium ]

Uptobox
Télécharger

Uplea
Télécharger

1fichier
Télécharger

Uploaded
Télécharger

TurboBit
Télécharger

NFO :

Afficher / Masquer le texte 303ff1e4af3b9e728e4dc3936944566b » class= »text_spoiler » style= »display:none; »>l’homme l’orgueil et la vengeance 1968 MULTi 1080p X264-NoTaG.zone-telechargement.com.mkv
Format : Matroska
Format version : Version 4 / Version 2
File size : 5.85 GiB
Duration : 1h 39mn
Overall bit rate mode : Variable
Overall bit rate : 8 384 Kbps
Movie name : L’homme, l’orgueil et la vengeance
Encoded date : UTC 2014-07-06 13:43:44
Writing application : mkvmerge v7.0.0 (‘Where We Going’) 64bit built on Jun 9 2014 15:16:27
Writing library : libebml v1.3.0 + libmatroska v1.4.1
DURATION : 00:00:05.121000000
NUMBER_OF_FRAMES : 3
NUMBER_OF_BYTES : 122
_STATISTICS_WRITING_APP : mkvmerge v7.0.0 (‘Where We Going’) 64bit built on Jun 9 2014 15:16:27
_STATISTICS_WRITING_DATE_UTC : 2014-07-06 13:43:44
_STATISTICS_TAGS : BPS DURATION NUMBER_OF_FRAMES NUMBER_OF_BYTES

Video
ID : 1
Format : AVC
Format/Info : Advanced Video Codec
Format profile : [email protected]
Format settings, CABAC : Yes
Format settings, ReFrames : 2 frames
Codec ID : V_MPEG4/ISO/AVC
Duration : 1h 39mn
Bit rate mode : Variable
Bit rate : 7 833 Kbps
Maximum bit rate : 12.0 Mbps
Width : 1 892 pixels
Height : 804 pixels
Display aspect ratio : 2.35:1
Frame rate mode : Constant
Frame rate : 23.976 fps
Color space : YUV
Chroma subsampling : 4:2:0
Bit depth : 8 bits
Scan type : Progressive
Bits/(Pixel*Frame) : 0.215
Stream size : 5.46 GiB (93%)
Default : Yes
Forced : No

Audio #1
ID : 2
Format : AC-3
Format/Info : Audio Coding 3
Mode extension : CM (complete main)
Format settings, Endianness : Big
Codec ID : A_AC3
Duration : 1h 39mn
Bit rate mode : Constant
Bit rate : 192 Kbps
Channel count : 2 channels
Channel positions : Front: L R
Sampling rate : 48.0 KHz
Bit depth : 16 bits
Compression mode : Lossy
Stream size : 137 MiB (2%)
Language : French
Default : Yes
Forced : No

Audio #2
ID : 3
Format : AC-3
Format/Info : Audio Coding 3
Mode extension : CM (complete main)
Format settings, Endianness : Big
Codec ID : A_AC3
Duration : 1h 39mn
Bit rate mode : Constant
Bit rate : 192 Kbps
Channel count : 2 channels
Channel positions : Front: L R
Sampling rate : 48.0 KHz
Bit depth : 16 bits
Compression mode : Lossy
Stream size : 137 MiB (2%)
Language : Italian
Default : No
Forced : No

Text
ID : 4
Format : UTF-8
Codec ID : S_TEXT/UTF8
Codec ID/Info : UTF-8 Plain Text
Title : Fr Forced
Language : French
Default : Yes
Forced : No