Telecharger Libre et assoupi [BLURAY 720p] French

BLURAY 720p | FRENCH

Libre et assoupi

Libre et assoupi

Libre et assoupi

Origine du film : Français
Réalisateur : Benjamin Guedj
Acteurs : Baptiste Lecaplain, Charlotte Le Bon, Félix Moati
Genre : Comédie
Durée : 1h33min
Date de sortie : 7 mai 2014
Année de production : 2013
Distribué par : Gaumont Distribution
Note presse : Libre et assoupi 2,7/5
Note spectateurs : Libre et assoupi 3,4/5 (1 068)
Bande annonce :

0b89cea671d5976981ac154f44e63c99

19544830″>Cliquez-ici pour voir la bande annonce 0b89cea671d5976981ac154f44e63c99″> 19544830

0b89cea671d5976981ac154f44e63c99

Libre et assoupi

Sébastien n'a qu'une ambition dans la vie : ne rien faire. Son horizon, c'est son canapé. Sa vie il ne veut pas la vivre mais la contempler. Mais aujourd’hui, si tu ne fais rien… Tu n’es rien. Alors poussé par ses deux colocs, qui enchaînent stages et petits boulots, la décidée Anna et le pas tout à fait décidé Bruno, Sébastien va devoir faire … Un peu.
60376″ style= »display:inline; »>

Libre et assoupi

Qualité : BLURAY 720p
Format : MKV
Langue : Français
Sous-titre : Français
Nombre de fichiers : 5 Fichiers
Taille des fichiers : 1023 Mo + 962 Mo

Libre et assoupi

Ps: Les liens sont interchangeables, prenez une partie de chaque hébergeur pour télécharger plusieurs fichiers en même temps.

Libre.Et.Assoupi.2014.FRENCH.720p.BluRay.X264-DREAM ( 5054 Mo)

Uptobox
Télécharger

Uplea
Télécharger

1fichier
Télécharger

Uploaded
Télécharger

Rapidgator
Télécharger

TurboBit
Télécharger

1 Lien Premium – 4.9 Go

Uptobox Premium
Télécharger

Uplea Premium
Télécharger

1fichier Premium
Télécharger

Uploaded Premium
Télécharger

TurboBit Premium
Télécharger

NFO :

Afficher / Masquer le texte d79d3fd07cd7a8f2092548a8b42ac8a9″ class= »text_spoiler » style= »display:none; »>General
Unique ID : 217432161651967147375158578544762401945 (0xA393E93DD6C31E67BB7912610DEBB499)
Complete name : /home/windz/FIlm/Libre.Et.Assoupi.2014.FRENCH.720p.BluRay.X264-DREAM.mkv
Format : Matroska
Format version : Version 4 / Version 2
File size : 4.94 GiB
Duration : 1h 32mn
Overall bit rate : 7 609 Kbps
Encoded date : UTC 2014-09-28 12:08:19
Writing application : mkvmerge v6.9.0 (‘On Duende’) 32bit built on Apr 18 2014 12:49:35
Writing library : libebml v1.3.0 + libmatroska v1.4.1

Video
ID : 1
Format : AVC
Format/Info : Advanced Video Codec
Format profile : [email protected]
Format settings, CABAC : Yes
Format settings, ReFrames : 9 frames
Codec ID : V_MPEG4/ISO/AVC
Duration : 1h 32mn
Bit rate : 6 100 Kbps
Width : 1 280 pixels
Height : 720 pixels
Display aspect ratio : 16:9
Frame rate : 23.976 fps
Color space : YUV
Chroma subsampling : 4:2:0
Bit depth : 8 bits
Scan type : Progressive
Bits/(Pixel*Frame) : 0.276
Stream size : 3.86 GiB (78%)
Writing library : x264 core 138 r2358 9e941d1
Encoding settings : cabac=1 / ref=9 / deblock=1:-3:-3 / analyse=0x3:0x113 / me=umh / subme=11 / psy=1 / psy_rd=0.98:0.02 / mixed_ref=1 / me_range=128 / chroma_me=1 / trellis=2 / 8x8dct=1 / cqm=0 / deadzone=6,6 / fast_pskip=0 / chroma_qp_offset=-2 / threads=12 / lookahead_threads=2 / sliced_threads=0 / nr=0 / decimate=1 / interlaced=0 / bluray_compat=0 / constrained_intra=0 / bframes=8 / b_pyramid=2 / b_adapt=2 / b_bias=0 / direct=1 / weightb=1 / open_gop=1 / weightp=2 / keyint=240 / keyint_min=23 / scenecut=40 / intra_refresh=0 / rc_lookahead=240 / rc=2pass / mbtree=1 / bitrate=6100 / ratetol=1.0 / qcomp=0.60 / qpmin=0 / qpmax=69 / qpstep=4 / cplxblur=20.0 / qblur=0.5 / vbv_maxrate=50000 / vbv_bufsize=50000 / nal_hrd=none / ip_ratio=1.40 / aq=2:1.00
Language : English
Default : Yes
Forced : Yes
Color primaries : BT.709-5, BT.1361, IEC 61966-2-4, SMPTE RP177
Transfer characteristics : BT.709-5, BT.1361
Matrix coefficients : BT.709-5, BT.1361, IEC 61966-2-4 709, SMPTE RP177

Audio
ID : 2
Format : DTS
Format/Info : Digital Theater Systems
Codec ID : A_DTS
Duration : 1h 32mn
Bit rate mode : Constant
Bit rate : 1 510 Kbps
Channel(s) : 6 channels
Channel positions : Front: L C R, Side: L R, LFE
Sampling rate : 48.0 KHz
Bit depth : 24 bits
Compression mode : Lossy
Stream size : 1 003 MiB (20%)
Title : DTS 5.1 FR
Language : French
Default : Yes
Forced : Yes

Text #1
ID : 3
Format : UTF-8
Codec ID : S_TEXT/UTF8
Codec ID/Info : UTF-8 Plain Text
Title : SRT Forced FR
Language : French
Default : Yes
Forced : Yes

Text #2
ID : 4
Format : PGS
Codec ID : S_HDMV/PGS
Codec ID/Info : The same subtitle format used on BDs/HD-DVDs
Title : PGS Forced FR
Language : French
Default : No
Forced : No

Jeux Gratuit
15354131_1854970838071206_1069261547_o.png