Telecharger Life After Beth [BLURAY 720p] French

(TRUEFRENCH = Vraie voix française)

Qualité BLURAY 720p | TRUEFRENCH

Life After Beth

Life After Beth

Life After Beth

Origine du film : Américain, Britannique
Réalisateur : Jeff Baena
Acteurs : Dane DeHaan, Aubrey Plaza, John C. Reilly
Genre : Epouvante-horreur, Romance, Comédie
Durée : 1h26min
Année de production : 2014
Note spectateurs : Life After Beth

; »>2,9/5 (77)
Bande annonce :

0360d40d3c0b23840eeb81c8f0cf804e

19546466″>Cliquez-ici pour voir la bande annonce 0360d40d3c0b23840eeb81c8f0cf804e »> 19546466

0360d40d3c0b23840eeb81c8f0cf804e

Life After Beth

Dévasté par le décès brutal de Beth, sa petite amie, Zach décide de ne pas laisser passer sa seconde chance lorsque sa bien-aimée revient d’entre les morts.
90444″ style= »display:inline; »>

Life After Beth

Format : MKV

Life After Beth

Life.After.Beth.2014.FRENCH.720p.BluRay.DD5.1.x264-TPSY

(3793 Mo)

[Liens Interchangeables entre hébergeurs: 3x 1000 Mo + 1x 793 Mo]

Uptobox
Télécharger

Uplea
Télécharger

1fichier
Télécharger

Uploaded
Télécharger

Rapidgator
Télécharger

TurboBit
Télécharger

1 Lien Premium – 3.7 Go

Uptobox Premium
Télécharger

Uplea Premium
Télécharger

1fichier Premium
Télécharger

Uploaded Premium
Télécharger

TurboBit Premium
Télécharger

NFO :

Afficher / Masquer le texte 4a26331cc14c89b530353454853474b0″ class= »text_spoiler » style= »display:none; »>General
Unique ID : 238266133742617984853665816315218391601 (0xB340635F29D45C7385E7D6CE6A747231)
Complete name : C:Life.After.Beth.2014.FRENCH.HD.zone-telechargement.com.mkv
Format : Matroska
Format version : Version 4 / Version 2
File size : 3.70 GiB
Duration : 1h 29mn
Overall bit rate : 5 958 Kbps
Movie name : Life.After.Beth.2014.FRENCH.720p.BluRay.DD5.1.x264-TPSY
Encoded date : UTC 2015-07-06 14:28:09
Writing application : mkvmerge v8.1.0 (‘Psychedelic Postcard’) 64bit
Writing library : libebml v1.3.1 + libmatroska v1.4.2

Video
ID : 1
Format : AVC
Format/Info : Advanced Video Codec
Format profile : [email protected]
Format settings, CABAC : Yes
Format settings, ReFrames : 5 frames
Codec ID : V_MPEG4/ISO/AVC
Duration : 1h 29mn
Bit rate : 5 517 Kbps
Width : 1 280 pixels
Height : 696 pixels
Display aspect ratio : 1.85:1
Frame rate mode : Constant
Frame rate : 23.976 fps
Color space : YUV
Chroma subsampling : 4:2:0
Bit depth : 8 bits
Scan type : Progressive
Bits/(Pixel*Frame) : 0.258
Stream size : 3.35 GiB (90%)
Title : Video source : ROVERS
Writing library : x264 core 142 r2479 dd79a61
Encoding settings : cabac=1 / ref=5 / deblock=1:0:0 / analyse=0x3:0x133 / me=umh / subme=7 / psy=1 / psy_rd=1.00:0.00 / mixed_ref=1 / me_range=16 / chroma_me=1 / trellis=1 / 8x8dct=1 / cqm=0 / deadzone=21,11 / fast_pskip=0 / chroma_qp_offset=-2 / threads=18 / lookahead_threads=3 / sliced_threads=0 / nr=0 / decimate=1 / interlaced=0 / bluray_compat=0 / constrained_intra=0 / bframes=3 / b_pyramid=2 / b_adapt=1 / b_bias=0 / direct=1 / weightb=1 / open_gop=0 / weightp=2 / keyint=250 / keyint_min=23 / scenecut=40 / intra_refresh=0 / rc_lookahead=40 / rc=2pass / mbtree=1 / bitrate=5517 / ratetol=1.0 / qcomp=0.60 / qpmin=0 / qpmax=69 / qpstep=4 / cplxblur=20.0 / qblur=0.5 / ip_ratio=1.40 / aq=1:1.00
Language : English
Default : Yes
Forced : Yes

Audio
ID : 2
Format : AC-3
Format/Info : Audio Coding 3
Mode extension : CM (complete main)
Format settings, Endianness : Big
Codec ID : A_AC3
Duration : 1h 29mn
Bit rate mode : Constant
Bit rate : 448 Kbps
Channel(s) : 6 channels
Channel positions : Front: L C R, Side: L R, LFE
Sampling rate : 48.0 KHz
Compression mode : Lossy
Stream size : 285 MiB (8%)
Language : French
Default : Yes
Forced : Yes

Text
ID : 3
Format : UTF-8
Codec ID : S_TEXT/UTF8
Codec ID/Info : UTF-8 Plain Text
Title : French forced
Language : French
Default : Yes
Forced : Yes

Menu
00:00:00.000 : en:Chapter 1
00:05:12.854 : en:Chapter 2
00:09:12.761 : en:Chapter 3
00:15:07.573 : en:Chapter 4
00:19:06.312 : en:Chapter 5
00:25:59.725 : en:Chapter 6
00:30:09.558 : en:Chapter 7
00:35:47.145 : en:Chapter 8
00:42:12.321 : en:Chapter 9
00:48:59.353 : en:Chapter 10
00:54:09.746 : en:Chapter 11
01:01:21.720 : en:Chapter 12
01:05:48.194 : en:Chapter 13
01:09:19.655 : en:Chapter 14
01:14:44.313 : en:Chapter 15
01:18:25.326 : en:Chapter 16

Jeux Gratuit
15354131_1854970838071206_1069261547_o.png