Telecharger L'Ile [BLURAY 720p] French

BLURAY 720p | FRENCH

L'Ile

L'Ile

L'Ile

Titre: L’ile
Titre Original: L’ile
Genre: Aventure,Fantastique
Durée: 1H34min
Année De Production: 2011
Réalisateur: Olivier Boillot
Acteurs: Michel Beatrix, Cyrielle Gyr Debreuil, Paul Descombes…
Origine Du Film: Français

L'Ile

Océan Atlantique 1942. Franck, Albert et Pierre échouent sur une île mystérieuse. Après le crash de leur avion qui devait les conduire en Amérique du Sud et les sauver de l’occupation allemande, ils ont dérivé pendant plusieurs jours sur l’océan Atlantique. A bout de forces, ils finissent par installer un camp de fortune sur la plage. Mais à l’aube, le jeune Pierre est réveillé en sursaut par un effroyable cri qui semble s’échapper du coeur de l’île. Ils décident alors de s’y aventurer… Seront-ils prêt à affronter son fabuleux et terrible secret ?
44424″ style= »display:inline; »>

Qualité : BLURAY 720p
Format : MKV
Langue : Français
Sous-titre : Français
Découpé avec : Winrar
Nombre de fichiers : 5 Fichiers
Taille des fichiers : 1000 Mo 461 Mo

[Liens Interchangeables]

L.Ile.FRENCH.720p.BluRay.x264-LECHTI ( 4461 Mo)

1fichier
Télécharger

Uptobox
Télécharger

Uploaded
Télécharger

Rapidgator
Télécharger

TurboBit
Télécharger

[1 Lien Premium]

1fichier
Télécharger

Uptobox
Télécharger

Uploaded
Télécharger

TurboBit
Télécharger

NFO :

Afficher / Masquer le texte abfbc14cf1f189595a59de38884e8944″ class= »text_spoiler » style= »display:none; »>Video
ID : 1
Format : AVC
Format/Info : Advanced Video Codec
Format profile : [email protected]
Format settings, CABAC : Yes
Format settings, ReFrames : 7 frames
Codec ID : V_MPEG4/ISO/AVC
Duration : 1h 30mn
Bit rate mode : Variable
Bit rate : 5 372 Kbps
Maximum bit rate : 25.0 Mbps
Width : 1 280 pixels
Height : 720 pixels
Display aspect ratio : 16:9
Frame rate : 25.000 fps
Color space : YUV
Chroma subsampling : 4:2:0
Bit depth : 8 bits
Scan type : Progressive
Bits/(Pixel*Frame) : 0.233
Stream size : 3.31 GiB (76%)
Writing library : x264 core 114 r1924 08d04a4
Encoding settings : cabac=1 / ref=7 / deblock=1:-3:-3 / analyse=0x3:0x133 / me=umh / subme=10 / psy=1 / psy_rd=1.00:0.00 / mixed_ref=1 / me_range=16 / chroma_me=1 / trellis=2 / 8x8dct=1 / cqm=0 / deadzone=21,11 / fast_pskip=1 / chroma_qp_offset=-2 / threads=6 / sliced_threads=0 / nr=0 / decimate=1 / interlaced=0 / constrained_intra=0 / bframes=7 / b_pyramid=0 / b_adapt=2 / b_bias=0 / direct=1 / weightb=1 / open_gop=0 / weightp=2 / keyint=250 / keyint_min=25 / scenecut=40 / intra_refresh=0 / rc_lookahead=40 / rc=2pass / mbtree=1 / bitrate=5372 / ratetol=1.0 / qcomp=0.60 / qpmin=0 / qpmax=69 / qpstep=4 / cplxblur=20.0 / qblur=0.5 / vbv_maxrate=25000 / vbv_bufsize=25000 / nal_hrd=vbr / ip_ratio=1.40 / aq=1:1.00

Audio
ID : 2
Format : DTS
Format/Info : Digital Theater Systems
Format profile : ES
Codec ID : A_DTS
Duration : 1h 30mn
Bit rate mode : Constant
Bit rate : 1 510 Kbps
Channel(s) : 6 channels
Channel positions : Front: L C R, Side: L R, LFE
Sampling rate : 48.0 KHz
Bit depth : 24 bits
Compression mode : Lossy
Stream size : 979 MiB (22%)
Language : French

Menu
00:00:00.000 : en:00:00:00.000
00:15:04.560 : en:00:15:04.560
00:30:48.400 : en:00:30:48.400
00:45:09.200 : en:00:45:09.200
01:01:01.640 : en:01:01:01.640
01:15:59.920 : en:01:15:59.920

Jeux Gratuit
15354131_1854970838071206_1069261547_o.png