Télécharger L'Île de Giovanni Blu-Ray 1080p/720p FRENCH

Qualité BLURAY 1080p | MULTiLANGUES | son DTS

L'Île de Giovanni

L'Île de Giovanni

Origine du film : Japonais
Réalisateur : Mizuho Nishikubo
Acteurs : Kota Yokoyama, Junya Taniai, Polina Ilyushenko
Genre : Animation, Drame, Historique
Durée : 1h42min
Date de sortie : 28 mai 2014
Année de production : 2013
Titre Original : Giovanni no Shima
Distribué par : Eurozoom
Note presse : L'Île de Giovanni 4,1/5
Note spectateurs : L'Île de Giovanni 4/5 (261)
Bande annonce :

2ddc047f384dfc8c07d662e519d7d9b2

19543935″>Cliquez-ici pour voir la bande annonce 2ddc047f384dfc8c07d662e519d7d9b2″> 19543935

2ddc047f384dfc8c07d662e519d7d9b2

L'Île de Giovanni

1945 : Après sa défaite, le peuple japonais vit dans la crainte des forces américaines. Au nord du pays, dans la minuscule île de Shikotan, la vie s’organise entre la reconstruction et la peur de l’invasion. Ce petit lot de terre, éloigné de tout, va finalement être annexé par l’armée russe. Commence alors une étrange cohabitation entre les familles des soldats soviétiques et les habitants de l’île que tout oppose, mais l’espoir renaît à travers l’innocence de deux enfants, Tanya et Jumpei…
96602″ style= »display:inline; »>

L'Île de Giovanni

Format : MKV
Découpé avec : Winrar

L'Île de Giovanni

L’Île.de.Giovanni.2014.MULTI.1080p.BluRay.DTS.x264-Babybel

(6080 Mo)

[Liens Interchangeables entre hébergeurs: 6x 1000 Mo + 1x 80 Mo]

Uptobox
Télécharger

Uploaded
Télécharger

TurboBit
Télécharger

Rapidgator
Télécharger

Uplea
Télécharger

1fichier
Télécharger

[Liens Premium ]

Uptobox
Télécharger

Uploaded
Télécharger

TurboBit
Télécharger

Uplea
Télécharger

1fichier
Télécharger

NFO :

Afficher / Masquer le texte 74394bbf9ac19e640b16d77cee0870d2″ class= »text_spoiler » style= »display:none; »>Unique ID : 217055591312320333853468948547738046928 (0xA34B62E3EF48C41098CBEFFB4C3091D0)
Complete name : Giovanni.no.Shima.2014.MULTI.1080p.BluRay.DTS.x264-Babybel.mkv
Format : Matroska
Format version : Version 4 / Version 2
File size : 5.94 GiB
Duration : 1h 41mn
Overall bit rate : 8 367 Kbps
Encoded date : UTC 2015-08-28 08:22:21
Writing application : mkvmerge v8.1.0 (‘Psychedelic Postcard’) 64bit
Writing library : libebml v1.3.1 + libmatroska v1.4.2
DURATION : 01:33:14.755000000
NUMBER_OF_FRAMES : 1132
NUMBER_OF_BYTES : 36180
_STATISTICS_WRITING_APP : mkvmerge v8.1.0 (‘Psychedelic Postcard’) 64bit
_STATISTICS_WRITING_DATE_UTC : 2015-08-28 08:22:21
_STATISTICS_TAGS : BPS DURATION NUMBER_OF_FRAMES NUMBER_OF_BYTES

Video
ID : 1
Format : AVC
Format/Info : Advanced Video Codec
Format profile : [email protected]
Format settings, CABAC : Yes
Format settings, ReFrames : 4 frames
Codec ID : V_MPEG4/ISO/AVC
Duration : 1h 41mn
Bit rate : 6 221 Kbps
Width : 1 920 pixels
Height : 1 080 pixels
Display aspect ratio : 16:9
Frame rate mode : Constant
Frame rate : 23.976 fps
Color space : YUV
Chroma subsampling : 4:2:0
Bit depth : 8 bits
Scan type : Progressive
Bits/(Pixel*Frame) : 0.125
Stream size : 4.29 GiB (72%)
Writing library : x264 core 144 r2525 40bb568
Encoding settings : cabac=1 / ref=4 / deblock=1:0:0 / analyse=0x3:0x133 / me=umh / subme=7 / psy=1 / psy_rd=1.00:0.00 / mixed_ref=1 / me_range=16 / chroma_me=1 / trellis=1 / 8x8dct=1 / cqm=0 / deadzone=21,11 / fast_pskip=0 / chroma_qp_offset=-2 / threads=12 / lookahead_threads=2 / sliced_threads=0 / nr=0 / decimate=1 / interlaced=0 / bluray_compat=0 / constrained_intra=0 / bframes=3 / b_pyramid=2 / b_adapt=2 / b_bias=0 / direct=3 / weightb=1 / open_gop=0 / weightp=2 / keyint=250 / keyint_min=23 / scenecut=40 / intra_refresh=0 / rc_lookahead=50 / rc=2pass / mbtree=1 / bitrate=6221 / ratetol=1.0 / qcomp=0.60 / qpmin=0 / qpmax=69 / qpstep=4 / cplxblur=20.0 / qblur=0.5 / ip_ratio=1.40 / aq=1:1.00
Language : Japanese
Default : Yes
Forced : No
DURATION : 01:41:34.130000000
NUMBER_OF_FRAMES : 146113
NUMBER_OF_BYTES : 4734363161
_STATISTICS_WRITING_APP : mkvmerge v8.1.0 (‘Psychedelic Postcard’) 64bit
_STATISTICS_WRITING_DATE_UTC : 2015-08-28 08:22:21
_STATISTICS_TAGS : BPS DURATION NUMBER_OF_FRAMES NUMBER_OF_BYTES

Audio #1
ID : 2
Format : DTS
Format/Info : Digital Theater Systems
Mode : 16
Format settings, Endianness : Big
Codec ID : A_DTS
Duration : 1h 41mn
Bit rate mode : Constant
Bit rate : 1 509 Kbps
Channel(s) : 6 channels
Channel positions : Front: L C R, Side: L R, LFE
Sampling rate : 48.0 KHz
Bit depth : 24 bits
Compression mode : Lossy
Stream size : 1.07 GiB (18%)
Language : Japanese
Default : No
Forced : No

Audio #2
ID : 4
Format : AC-3
Format/Info : Audio Coding 3
Mode extension : CM (complete main)
Format settings, Endianness : Big
Codec ID : A_AC3
Duration : 1h 41mn
Bit rate mode : Constant
Bit rate : 640 Kbps
Channel(s) : 6 channels
Channel positions : Front: L C R, Side: L R, LFE
Sampling rate : 48.0 KHz
Compression mode : Lossy
Stream size : 465 MiB (8%)
Title : FR-AC3
Language : French
Default : Yes
Forced : No

Text #1
ID : 3
Format : UTF-8
Codec ID : S_TEXT/UTF8
Codec ID/Info : UTF-8 Plain Text
Title : Anglais
Language : English
Default : No
Forced : No

Text #2
ID : 5
Format : UTF-8
Codec ID : S_TEXT/UTF8
Codec ID/Info : UTF-8 Plain Text
Title : Forced FR Subs
Language : French
Default : Yes
Forced : No

Text #3
ID : 6
Format : UTF-8
Codec ID : S_TEXT/UTF8
Codec ID/Info : UTF-8 Plain Text
Title : Français
Language : French
Default : No
Forced : No

Jeux Gratuit
15354131_1854970838071206_1069261547_o.png