Telecharger Lincoln [BLURAY 720p] French

(TRUEFRENCH = Vraie voix française)

BLURAY 720p | MULTiLANGUES (Avec TRUEFRENCH) | DTS

Lincoln

Lincoln

Lincoln

Origine du film : Américain
Réalisateur : Steven Spielberg
Acteurs : Daniel Day-Lewis, Sally Field, David Strathairn
Genre : Biopic, Drame
Durée : 2h 29min
Date de sortie : 30 janvier 2013
Année de production : 2012
Distribué par : Twentieth Century Fox France
Note presse : Lincoln 3,9/5
Note spectateurs : Lincoln

; »>3,6/5 (4 985)
Bande annonce :

e535c7b295ae1205cf13a7b1346b5b78

19428336″>Cliquez-ici pour voir la bande annonce e535c7b295ae1205cf13a7b1346b5b78″> 19428336

e535c7b295ae1205cf13a7b1346b5b78

Lincoln

Les derniers mois tumultueux du mandat du 16e Président des États-Unis. Dans une nation déchirée par la guerre civile et secouée par le vent du changement, Abraham Lincoln met tout en œuvre pour résoudre le conflit, unifier le pays et abolir l'esclavage. Cet homme doté d'une détermination et d'un courage moral exceptionnels va devoir faire des choix qui bouleverseront le destin des générations à venir.

Nom de la release : Lincoln.2012.MULTi.TRUEFRENCH.DTS.720p.BluRay.x264-STEAL 26449″ style= »display:inline; »>

Qualité : BLURAY 720p
Format : Dossier de fichier
Sous-titre : Multi
Nombre de fichiers : 7 Fichiers
Taille des fichiers : 1000 Mo 764 Mo
Taille totale : 6764 Mo

Ps: Les liens sont interchangeables, prenez une partie de chaque hébergeur pour télécharger plusieurs fichiers en même temps. smile

1fichier
Télécharger

Uptobox
Télécharger

Free
Télécharger

Uploaded
Télécharger

Rapidgator
Télécharger

TurboBit
Télécharger

[Un Lien Premium]

1fichier Premium
Télécharger

Uptobox Premium
Télécharger

Uploaded Premium
Télécharger

cloudZer Premium
Télécharger

TurboBit Premium
Télécharger

NFO :

Afficher / Masquer le texte 7556fc8c8da66a8025ed223187a5d380″ class= »text_spoiler » style= »display:none; »>General
Unique ID : 239471584950897325834169900392617956802 (0xB4288CB47717A75C8AE7195ACB1955C2)
Complete name : E:TelechargementsTerminesLincoln 2012 720p DTS Bluray x264-STEAL.mkv
Format : Matroska
File size : 6.61 GiB
Duration : 2h 30mn
Overall bit rate : 6 278 Kbps
Movie name : Lincoln 2012 High [email protected] Resolution 1280p/ 720p Frame rate 23.976 fps Release Blondin000
Encoded date : UTC 2013-05-19 07:07:15
Writing application : mkvmerge v6.0.0 ('Coming Up For Air') built on Jan 20 2013 09:52:00
Writing library : libebml v1.3.0 libmatroska v1.4.0

Video
ID : 1
Format : AVC
Format/Info : Advanced Video Codec
Format profile : [email protected]
Format settings, CABAC : Yes
Format settings, ReFrames : 9 frames
Codec ID : V_MPEG4/ISO/AVC
Duration : 2h 30mn
Bit rate : 4 000 Kbps
Width : 1 280 pixels
Height : 720 pixels
Display aspect ratio : 16:9
Frame rate : 23.976 fps
Color space : YUV
Chroma subsampling : 4:2:0
Bit depth : 8 bits
Scan type : Progressive
Bits/(Pixel*Frame) : 0.181
Stream size : 4.09 GiB (62%)
Title : Lincoln 2012 High [email protected] Resolution 1280p/ 720p Frame rate 23.976 fps Release Blondin000
Writing library : x264 core 130 r2273 b3065e6
Encoding settings : cabac=1 / ref=9 / deblock=1:-3:-3 / analyse=0x3:0x113 / me=umh / subme=11 / psy=1 / psy_rd=0.90:0.20 / mixed_ref=1 / me_range=128 / chroma_me=1 / trellis=2 / 8x8dct=1 / cqm=0 / deadzone=21,11 / fast_pskip=0 / chroma_qp_offset=-2 / threads=24 / lookahead_threads=2 / sliced_threads=0 / nr=0 / decimate=1 / interlaced=0 / bluray_compat=0 / constrained_intra=0 / bframes=5 / b_pyramid=2 / b_adapt=2 / b_bias=0 / direct=1 / weightb=1 / open_gop=1 / weightp=2 / keyint=240 / keyint_min=23 / scenecut=40 / intra_refresh=0 / rc_lookahead=240 / rc=2pass / mbtree=1 / bitrate=4000 / ratetol=1.0 / qcomp=0.60 / qpmin=0 / qpmax=69 / qpstep=4 / cplxblur=20.0 / qblur=0.5 / vbv_maxrate=50000 / vbv_bufsize=50000 / nal_hrd=none / ip_ratio=1.40 / aq=2:1.00
Language : English
Color primaries : BT.709-5, BT.1361, IEC 61966-2-4, SMPTE RP177
Transfer characteristics : BT.709-5, BT.1361
Matrix coefficients : BT.709-5, BT.1361, IEC 61966-2-4 709, SMPTE RP177

Audio #1
ID : 2
Format : DTS
Format/Info : Digital Theater Systems
Codec ID : A_DTS
Duration : 2h 30mn
Bit rate mode : Constant
Bit rate : 755 Kbps
Channel(s) : 6 channels
Channel positions : Front: L C R, Side: L R, LFE
Sampling rate : 48.0 KHz
Bit depth : 24 bits
Compression mode : Lossy
Stream size : 813 MiB (12%)
Title : VFF DTS 5.1_768 kbps/ 24-bit 48khz
Language : French

Audio #2
ID : 3
Format : DTS
Format/Info : Digital Theater Systems
Format profile : ES
Codec ID : A_DTS
Duration : 2h 30mn
Bit rate mode : Constant
Bit rate : 1 510 Kbps
Channel(s) : 6 channels
Channel positions : Front: L C R, Side: L R, LFE
Sampling rate : 48.0 KHz
Bit depth : 24 bits
Compression mode : Lossy
Stream size : 1.59 GiB (24%)
Title : VO DTS 5.1_1510 kbps/ 24-bit 48khz
Language : English

Text #1
ID : 4
Format : UTF-8
Codec ID : S_TEXT/UTF8
Codec ID/Info : UTF-8 Plain Text
Title : FR Complets srt
Language : French

Text #2
ID : 5
Format : UTF-8
Codec ID : S_TEXT/UTF8
Codec ID/Info : UTF-8 Plain Text
Title : FR ForcΘs srt
Language : French

Jeux Gratuit
15354131_1854970838071206_1069261547_o.png