Télécharger Little Boy VOSTFR

Qualité BLURAY 720p | VOSTFR | son DTS

Little Boy

Little Boy

Origine du film : Américain, Mexicain
Réalisateur : Alejandro Monteverde
Acteurs : Jakob Salvati, Kevin James, Emily Watson
Genre : Drame, Guerre, Comédie
Durée : 1h40min
Année de production : 2015
Bande annonce :

abecc3d5ba56723bce5293fb70843737

19549998″>Cliquez-ici pour voir la bande annonce abecc3d5ba56723bce5293fb70843737″> 19549998

abecc3d5ba56723bce5293fb70843737

Little Boy

Un petit garçon de sept ans est prêt à tout pour mettre un terme à la Seconde guerre mondiale, afin de faire revenir son père à la maison. Y compris à utiliser la magie…
95214″ style= »display:inline; »>

Little Boy

Format : MKV
Découpé avec : Winrar

Little Boy

Little.Boy.2015.VOSTFR.720p.BluRay.x264.DTS-BUITONIO

(5588 Mo)

[Liens Interchangeables entre hébergeurs: 5x 1000 Mo + 1x 588 Mo]

Uptobox
Télécharger

Uplea
Télécharger

1fichier
Télécharger

Uploaded
Télécharger

Rapidgator
Télécharger

TurboBit
Télécharger

[ 1 lien Premium ]

Uptobox
Télécharger

Uplea
Télécharger

1fichier
Télécharger

TurboBit
Télécharger

NFO :

Afficher / Masquer le texte cb5bfd995a4f9f002fcd21706d637774″ class= »text_spoiler » style= »display:none; »>General
Unique ID : 272601191353744244569700099982615731726 (0xCD15146935D34696A5709AF860D55E0E)
Complete name : Little.Boy.2015.VOSTFR.720p.BluRay.x264.DTS-BUITONIO.mkv
Format : Matroska
Format version : Version 4 / Version 2
File size : 5.46 GiB
Duration : 1h 46mn
Overall bit rate : 7 310 Kbps
Encoded date : UTC 2015-08-12 21:51:59
Writing application : mkvmerge v8.2.0 (‘World of Adventure’) 64bit
Writing library : libebml v1.3.1 + libmatroska v1.4.2

Video
ID : 1
Format : AVC
Format/Info : Advanced Video Codec
Format profile : [email protected]
Format settings, CABAC : Yes
Format settings, ReFrames : 5 frames
Codec ID : V_MPEG4/ISO/AVC
Duration : 1h 46mn
Bit rate : 5 805 Kbps
Width : 1 280 pixels
Height : 536 pixels
Display aspect ratio : 2.40:1
Frame rate mode : Constant
Frame rate : 23.976 fps
Color space : YUV
Chroma subsampling : 4:2:0
Bit depth : 8 bits
Scan type : Progressive
Bits/(Pixel*Frame) : 0.353
Stream size : 4.22 GiB (77%)
Writing library : x264 core 148 r2579 73ae2d1
Encoding settings : cabac=1 / ref=5 / deblock=1:0:0 / analyse=0x3:0x133 / me=umh / subme=7 / psy=1 / psy_rd=1.00:0.00 / mixed_ref=1 / me_range=16 / chroma_me=1 / trellis=1 / 8x8dct=1 / cqm=0 / deadzone=21,11 / fast_pskip=0 / chroma_qp_offset=-2 / threads=17 / lookahead_threads=2 / sliced_threads=0 / nr=0 / decimate=1 / interlaced=0 / bluray_compat=0 / constrained_intra=0 / bframes=3 / b_pyramid=2 / b_adapt=1 / b_bias=0 / direct=1 / weightb=1 / open_gop=0 / weightp=2 / keyint=250 / keyint_min=23 / scenecut=40 / intra_refresh=0 / rc_lookahead=40 / rc=2pass / mbtree=1 / bitrate=5805 / ratetol=1.0 / qcomp=0.60 / qpmin=0 / qpmax=69 / qpstep=4 / cplxblur=20.0 / qblur=0.5 / ip_ratio=1.40 / aq=1:1.00
Language : English
Default : Yes
Forced : No

Audio
ID : 2
Format : DTS
Format/Info : Digital Theater Systems
Mode : 16
Format settings, Endianness : Big
Codec ID : A_DTS
Duration : 1h 46mn
Bit rate mode : Constant
Bit rate : 1 509 Kbps
Channel(s) : 6 channels
Channel positions : Front: L C R, Side: L R, LFE
Sampling rate : 48.0 KHz
Bit depth : 24 bits
Compression mode : Lossy
Stream size : 1.13 GiB (21%)
Language : English
Default : Yes
Forced : No

Text
ID : 3
Format : UTF-8
Codec ID : S_TEXT/UTF8
Codec ID/Info : UTF-8 Plain Text
Title : Sous-titres FR
Language : French
Default : Yes
Forced : No

Menu
00:00:00.000 : :Chapitre 1
00:04:17.215 : :Chapitre 2
00:09:29.861 : :Chapitre 3
00:16:54.764 : :Chapitre 4
00:21:36.962 : :Chapitre 5
00:27:01.745 : :Chapitre 6
00:33:18.914 : :Chapitre 7
00:38:45.365 : :Chapitre 8
00:42:30.006 : :Chapitre 9
00:47:38.230 : :Chapitre 10
00:50:35.616 : :Chapitre 11
00:55:34.998 : :Chapitre 12
01:02:40.006 : :Chapitre 13
01:07:49.023 : :Chapitre 14
01:12:28.261 : :Chapitre 15
01:19:20.756 : :Chapitre 16
01:24:06.166 : :Chapitre 17
01:28:39.439 : :Chapitre 18
01:32:51.941 : :Chapitre 19
01:37:46.986 : :Chapitre 20