Telecharger Looper [BLURAY 720p] French

(TRUEFRENCH = Vraie voix française)

BLURAY 720p | TRUEFRENCH | DTS

Looper

Looper

Looper

Origine du film : Chinois, américain
Réalisateur : Rian Johnson
Acteurs : Bruce Willis, Joseph Gordon-Levitt, Emily Blunt
Genre : Science fiction, Action
Durée : 1h 50min
Date de sortie : 31 octobre 2012
Année de production : 2012
Distribué par : SND
Note presse : Looper 3,9/5
Note spectateurs : Looper 3,8/5 (5 932)
Bande annonce :

933ed3ff7a802b8273178a5aa6a2db2b

19384410″>Cliquez-ici pour voir la bande annonce 933ed3ff7a802b8273178a5aa6a2db2b »> 19384410

933ed3ff7a802b8273178a5aa6a2db2b

Looper

Dans un futur proche, la Mafia a mis au point un système infaillible pour faire disparaître tous les témoins gênants. Elle expédie ses victimes dans le passé, à notre époque, où des tueurs d’un genre nouveau (les « Loopers ») les éliminent. Un jour, l’un d’entre eux, Joe, découvre que la victime qu’il doit exécuter n’est autre que… lui-même, avec 20 ans de plus. La machine si bien huilée déraille…

Nom de la release : Looper.2012.TRUEFRENCH.720p.BluRay.x264-LOST 22035″ style= »display:inline; »>

Looper

Qualité : BLURAY 720p
Format : MKV
Langue : Français
Sous-titre : Français
Nombre de fichiers : 6 Fichiers
Taille des fichiers : 1000 Mo 597 Mo
Taille totale : 5597 Mo

Looper

Ps: Les liens sont interchangeables, prenez une partie de chaque hébergeur pour télécharger plusieurs fichiers en même temps. smile

Uptobox
Télécharger

Uplea
Télécharger

1fichier
Télécharger

Uploaded
Télécharger

Rapidgator
Télécharger

TurboBit
Télécharger

[Liens Premium]

Uptobox
Télécharger

Uplea
Télécharger

1fichier
Télécharger

Uploaded
Télécharger

Rapidgator
Télécharger

TurboBit
Télécharger

NFO :

Afficher / Masquer le texte 0c64168cc1d39f5de48c3c81fe395351″ class= »text_spoiler » style= »display:none; »>General
Complete name : lost-looper.tf.720p.mkv
Format : Matroska
Format version : Version 2
File size : 5.47 GiB
Duration : 1h 58mn
Overall bit rate : 6 585 Kbps
Writing application : mkvmerge v4.1.1 ('Bouncin' Back') built on Jul 3 2010 22:54:08
Writing library : libebml v1.0.0 libmatroska v1.0

Video
ID : 1
Format : AVC
Format/Info : Advanced Video Codec
Format profile : [email protected]
Format settings, CABAC : Yes
Format settings, ReFrames : 5 frames
Codec ID : V_MPEG4/ISO/AVC
Duration : 1h 58mn
Bit rate : 5 073 Kbps
Width : 1 280 pixels
Height : 544 pixels
Display aspect ratio : 2.35:1
Frame rate mode : Constant
Frame rate : 24.000 fps
Color space : YUV
Chroma subsampling : 4:2:0
Bit depth : 8 bits
Scan type : Progressive
Bits/(Pixel*Frame) : 0.304
Stream size : 4.11 GiB (75%)
Writing library : x264 core 129 r2245 bc13772
Encoding settings : cabac=1 / ref=5 / deblock=1:0:0 / analyse=0x3:0x113 / me=umh / subme=8 / psy=1 / psy_rd=1.00:0.00 / mixed_ref=1 / me_range=16 / chroma_me=1 / trellis=1 / 8x8dct=1 / cqm=0 / deadzone=21,11 / fast_pskip=1 / chroma_qp_offset=-2 / threads=12 / lookahead_threads=2 / sliced_threads=0 / nr=0 / decimate=1 / interlaced=0 / bluray_compat=0 / constrained_intra=0 / bframes=3 / b_pyramid=2 / b_adapt=2 / b_bias=0 / direct=3 / weightb=1 / open_gop=0 / weightp=2 / keyint=240 / keyint_min=24 / scenecut=40 / intra_refresh=0 / rc_lookahead=50 / rc=2pass / mbtree=1 / bitrate=5073 / ratetol=1.0 / qcomp=0.60 / qpmin=0 / qpmax=69 / qpstep=4 / cplxblur=20.0 / qblur=0.5 / ip_ratio=1.40 / aq=1:1.00
Language : English
Default : Yes
Forced : No

Audio
ID : 2
Format : DTS
Format/Info : Digital Theater Systems
Mode : 16
Format settings, Endianness : Big
Codec ID : A_DTS
Duration : 1h 58mn
Bit rate mode : Constant
Bit rate : 1 509 Kbps
Channel(s) : 6 channels
Channel positions : Front: L C R, Side: L R, LFE
Sampling rate : 48.0 KHz
Bit depth : 24 bits
Compression mode : Lossy
Stream size : 1.25 GiB (23%)
Title : French DTS 1509kbps
Language : French
Default : Yes
Forced : No

Text
ID : 3
Format : UTF-8
Codec ID : S_TEXT/UTF8
Codec ID/Info : UTF-8 Plain Text
Title : French_forced
Language : French
Default : Yes
Forced : Yes

Jeux Gratuit
15354131_1854970838071206_1069261547_o.png