Telecharger Love Gourou [BLURAY 720p] French

Qualité BLURAY 720p | FRENCH

Love Gourou

Love Gourou

Origine du film : Britannique, Allemand, Américain
Réalisateur : Marco Schnabel
Acteurs : Mike Myers, Jessica Alba, Justin Timberlake
Genre : Comédie, Romance
Durée : 1h45min
Date de sortie : 17 septembre 2008
Année de production : 2008
Titre Original : The Love Guru
Distribué par : Paramount Pictures France
Note presse : Love Gourou 1,8/5
Note spectateurs : Love Gourou

; »>1,5/5 (572)
Bande annonce :

9a550f77494733889e20f4639eafcd8b

18826959″>Cliquez-ici pour voir la bande annonce 9a550f77494733889e20f4639eafcd8b »> 18826959

9a550f77494733889e20f4639eafcd8b

Love Gourou

Pitka est l’un des gourous les plus célèbres du monde. Le deuxième, pour être précis. Ses airs inspirés, ses trésors de sagesse, son aura mystique captivent les foules autant que son abondante pilosité et les insondables dictons et prophéties dont il émaille ses sermons. Ce sage n’a que trois ambitions : instaurer la paix universelle, éclairer l’humanité… et passer au Journal de 20 heures.Pitka était un petit Américain ordinaire jusqu’au jour où sa famille l’abandonna aux portes d’un ashram et aux bons soins de l’excentrique gourou Tugginmypuddha. C’est dans l’obscur village indien de Harenmahkeester qu’il découvrit les secrets du monde en compagnie de son ami et futur rival, Deepak Chopra. Aujourd’hui, Chopra est le n°1 des gourous, et Pitka arrive à peine à se faire inviter sur les chaines régionales.
104304″ style= »display:inline; »>

Love Gourou

Format : MKV
Découpé avec : Winrar

Love Gourou

The.Love.Guru.2008.FRENCH.720p.BluRay.x264-LesBleus

(3662 Mo)

[Liens Interchangeables entre hébergeurs: 3x 1000 Mo + 1x 662 Mo]

Uptobox
Télécharger

Uplea
Télécharger

1fichier
Télécharger

Uploaded
Télécharger

Rapidgator
Télécharger

TurboBit
Télécharger

[ Liens Premium ]

Uptobox
Télécharger

Uplea
Télécharger

1fichier
Télécharger

Uploaded
Télécharger

TurboBit
Télécharger

NFO :

Afficher / Masquer le texte 10af8b4da19aa491fb725f91e3e6d8e1″ class= »text_spoiler » style= »display:none; »>The.Love.Guru.2008.FRENCH.720p.BluRay.x264-LesBleus.zone-telechargement.com.mkv
Format : Matroska
Format version : Version 2
File size : 3.58 GiB
Duration : 1h 26mn
Overall bit rate mode : Variable
Overall bit rate : 5 906 Kbps
Movie name : The Love Guru 2008 FRENCH 720p BluRay x264-LesBleus
Encoded date : UTC 2012-08-07 23:14:07
Writing application : mkvmerge v5.2.0 (‘I can’t explain’) built on Dec 18 2011 18:12:03
Writing library : libebml v1.2.3 + libmatroska v1.3.0

Video
ID : 1
Format : AVC
Format/Info : Advanced Video Codec
Format profile : [email protected]
Format settings, CABAC : Yes
Format settings, ReFrames : 3 frames
Muxing mode : Header stripping
Codec ID : V_MPEG4/ISO/AVC
Duration : 1h 26mn
Bit rate mode : Variable
Bit rate : 5 200 Kbps
Maximum bit rate : 25.0 Mbps
Width : 1 280 pixels
Height : 534 pixels
Display aspect ratio : 2.40:1
Frame rate mode : Constant
Frame rate : 23.976 fps
Color space : YUV
Chroma subsampling : 4:2:0
Bit depth : 8 bits
Scan type : Progressive
Bits/(Pixel*Frame) : 0.317
Stream size : 3.12 GiB (87%)
Writing library : x264 core 120 r2120 0c7dab9
Encoding settings : cabac=1 / ref=3 / deblock=1:0:0 / analyse=0x3:0x113 / me=hex / subme=7 / psy=1 / psy_rd=1.00:0.00 / mixed_ref=1 / me_range=16 / chroma_me=1 / trellis=1 / 8x8dct=1 / cqm=0 / deadzone=21,11 / fast_pskip=1 / chroma_qp_offset=-2 / threads=6 / sliced_threads=0 / nr=0 / decimate=1 / interlaced=0 / bluray_compat=0 / constrained_intra=0 / bframes=3 / b_pyramid=0 / b_adapt=1 / b_bias=0 / direct=1 / weightb=1 / open_gop=0 / weightp=2 / keyint=240 / keyint_min=24 / scenecut=40 / intra_refresh=0 / rc_lookahead=40 / rc=2pass / mbtree=1 / bitrate=5200 / ratetol=1.0 / qcomp=0.60 / qpmin=0 / qpmax=69 / qpstep=4 / cplxblur=20.0 / qblur=0.5 / vbv_maxrate=25000 / vbv_bufsize=25000 / nal_hrd=vbr / ip_ratio=1.40 / aq=1:1.00
Default : Yes
Forced : No

Audio
ID : 2
Format : AC-3
Format/Info : Audio Coding 3
Mode extension : CM (complete main)
Format settings, Endianness : Big
Muxing mode : Header stripping
Codec ID : A_AC3
Duration : 1h 26mn
Bit rate mode : Constant
Bit rate : 640 Kbps
Channel count : 6 channels
Channel positions : Front: L C R, Side: L R, LFE
Sampling rate : 48.0 KHz
Bit depth : 16 bits
Compression mode : Lossy
Stream size : 397 MiB (11%)
Language : French
Default : Yes
Forced : No

Text #1
ID : 3
Format : PGS
Muxing mode : zlib
Codec ID : S_HDMV/PGS
Codec ID/Info : The same subtitle format used on BDs/HD-DVDs
Language : English
Default : No
Forced : No

Text #2
ID : 4
Format : PGS
Muxing mode : zlib
Codec ID : S_HDMV/PGS
Codec ID/Info : The same subtitle format used on BDs/HD-DVDs
Language : English
Default : No
Forced : No

Text #3
ID : 5
Format : PGS
Muxing mode : zlib
Codec ID : S_HDMV/PGS
Codec ID/Info : The same subtitle format used on BDs/HD-DVDs
Language : French
Default : Yes
Forced : No

Text #4
ID : 6
Format : PGS
Muxing mode : zlib
Codec ID : S_HDMV/PGS
Codec ID/Info : The same subtitle format used on BDs/HD-DVDs
Language : Spanish
Default : No
Forced : No

Text #5
ID : 7
Format : PGS
Muxing mode : zlib
Codec ID : S_HDMV/PGS
Codec ID/Info : The same subtitle format used on BDs/HD-DVDs
Language : Portuguese
Default : No
Forced : No

Jeux Gratuit
15354131_1854970838071206_1069261547_o.png