Telecharger Lovelace [BLURAY 720p] French

BLURAY 720p | FRENCH

Lovelace

Lovelace

Lovelace

Origine du film : Américain
Réalisateur : Rob Epstein, Jeffrey Friedman
Acteurs : Amanda Seyfried, Peter Sarsgaard, Sharon Stone
Genre : Biopic, Drame
Durée : 1h 33min
Date de sortie : 8 janvier 2014,
Année de production : 2013
Distribué par : Hélios Films
Bande annonce :

3f74b09c3c26294e45cf832ac40fc2a3

19540291″>Cliquez-ici pour voir la bande annonce 3f74b09c3c26294e45cf832ac40fc2a3″> 19540291

3f74b09c3c26294e45cf832ac40fc2a3

Lovelace

L'itinéraire de Linda Lovelace, devenue une star mondiale du cinéma X dans les années 1970, grâce au succès de « Gorge Profonde », et qui s'est ensuite muée en une militante farouchement opposée à l'industrie du porno. 37891″ style= »display:inline; »>

Qualité : BLURAY 720p
Format : MKV
Langue : Français
Sous-titre : Français
Nombre de fichiers : 4 Fichiers
Taille des fichiers : 1000 Mo 764 Mo

Ps: Les liens sont interchangeables, prenez une partie de chaque hébergeur pour télécharger plusieurs fichiers en même temps. smile

Lovelace.2013.LiMiTED.720p.BluRay.x264-HDFUZION ( 3764 Mo)

1fichier
Télécharger

Uptobox
Télécharger

Free
Télécharger

Uploaded
Télécharger

Rapidgator
Télécharger

TurboBit
Télécharger

[1 Lien Premium]

1fichier Premium
Télécharger

Uptobox Premium
Télécharger

Uploaded Premium
Télécharger

Rapidgator Premium
Télécharger

TurboBit Premium
Télécharger

NFO :

Afficher / Masquer le texte 39c9cd7d26f8b249b0d99a6f03f945e6″ class= »text_spoiler » style= »display:none; »>Format : Matroska
Format version : Version 2
File size : 3.68 GiB
Duration : 1h 32mn
Overall bit rate : 5 672 Kbps
Encoded date : UTC 2013-11-03 11:15:15
Writing application : mkvmerge v4.4.0
Writing library : libebml v1.0.0 libmatroska v1.0.0

Video
ID : 1
Format : AVC
Format/Info : Advanced Video Codec
Format profile : [email protected]
Format settings, CABAC : Yes
Format settings, ReFrames : 5 frames
Muxing mode : Header stripping
Codec ID : V_MPEG4/ISO/AVC
Duration : 1h 32mn
Bit rate : 5 229 Kbps
Width : 1 280 pixels
Height : 696 pixels
Display aspect ratio : 16:9
Frame rate : 23.976 fps
Color space : YUV
Chroma subsampling : 4:2:0
Bit depth : 8 bits
Scan type : Progressive
Bits/(Pixel*Frame) : 0.245
Stream size : 3.31 GiB (90%)
Title : X264
Writing library : x264 core 133 r2334 a3ac64b
Encoding settings : cabac=1 / ref=5 / deblock=1:0:0 / analyse=0x3:0x133 / me=umh / subme=7 / psy=1 / psy_rd=1.00:0.00 / mixed_ref=1 / me_range=16 / chroma_me=1 / trellis=1 / 8x8dct=1 / cqm=0 / deadzone=21,11 / fast_pskip=0 / chroma_qp_offset=-2 / threads=18 / lookahead_threads=3 / sliced_threads=0 / nr=0 / decimate=1 / interlaced=0 / bluray_compat=0 / constrained_intra=0 / bframes=3 / b_pyramid=2 / b_adapt=1 / b_bias=0 / direct=1 / weightb=1 / open_gop=0 / weightp=2 / keyint=250 / keyint_min=23 / scenecut=40 / intra_refresh=0 / rc_lookahead=40 / rc=2pass / mbtree=1 / bitrate=5229 / ratetol=1.0 / qcomp=0.60 / qpmin=0 / qpmax=69 / qpstep=4 / cplxblur=20.0 / qblur=0.5 / ip_ratio=1.40 / aq=1:1.00
Language : English
Default : Yes
Forced : No

Audio
ID : 2
Format : AC-3
Format/Info : Audio Coding 3
Mode extension : CM (complete main)
Muxing mode : Header stripping
Codec ID : A_AC3
Duration : 1h 32mn
Bit rate mode : Constant
Bit rate : 448 Kbps
Channel(s) : 6 channels
Channel positions : Front: L C R, Side: L R, LFE
Sampling rate : 48.0 KHz
Bit depth : 16 bits
Compression mode : Lossy
Delay relative to video : 8ms
Stream size : 297 MiB (8%)
Default : Yes
Forced : No

Text
ID : 3
Format : UTF-8
Codec ID : S_TEXT/UTF8
Codec ID/Info : UTF-8 Plain Text
Default : Yes
Forced : No