Telecharger Luke la main froide [DVDRiP] French

(TRUEFRENCH = Vraie voix française)

Qualité BDRiP mkv | TRUEFRENCH

Luke la main froide

Luke la main froide

Origine du film : Américain
Réalisateur : Stuart Rosenberg
Acteurs : James Gammon, Chuck Hicks, Rance Howard
Genre : Drame
Durée : 2h6min
Date de sortie : 1 décembre 1967
Année de production : 1967
Titre Original : Cool Hand Luke
Note presse : Luke la main froide 2,8/5
Note spectateurs : Luke la main froide

; »>3,7/5 (706)
Bande annonce :

c54287dda6ad68735ebd71c0696e6430

19423214″>Cliquez-ici pour voir la bande annonce c54287dda6ad68735ebd71c0696e6430″> 19423214

c54287dda6ad68735ebd71c0696e6430

Luke la main froide

Pour s’être livré à des actes de vandalisme, Luke Jackson purge une peine de deux ans de prison dans un camp de travail. Il s’y lie d’amitié avec un autre détenu, Dragline, et devient bientôt le prisonnier le plus populaire grâce à son flegme et sa joie de vivre communicative.
93350″ style= »display:inline; »>

Luke la main froide

Format : MKV

Luke la main froide

Luke la main froide 1967 FRENCH.BRRip.x264.AC3-HuSh

(1370 Mo)

Uptobox
Télécharger

Uploaded
Télécharger

TurboBit
Télécharger

Rapidgator
Télécharger

Uplea
Télécharger

1fichier
Télécharger

NFO :

Afficher / Masquer le texte b964c5863cb69ec52e6ae8ccecac1156″ class= »text_spoiler » style= »display:none; »>■General

Unique ID : 236950787963794801320639020081660687258 (0xB2430FD1600E5C659B3B39308D59F39A)

Complete name : C:UsersGandalf_HZDesktopTorrentLuke.La.Main.Froide.1967.FRENCH.BRRip.x264.AC3-HuShLuke.La.Main.Froide.1967.FRENCH.BRRip.x264.AC3-HuSh.mkv

Format : Matroska

Format version : Version 4 / Version 2

File size : 1.37 GiB

Duration : 2h 6mn

Overall bit rate mode : Variable

Overall bit rate : 1 549 Kbps

Movie name : Luke.La.Main.Froide.1967.FRENCH.BRRip.x264.AC3-HuSh

Encoded date : UTC 2013-08-24 10:57:58

Writing application : mkvmerge v6.3.0 (‘You can’t stop me!’) built on Jun 28 2013 20:09:41

Writing library : libebml v1.3.0 + libmatroska v1.4.0

Video

ID : 1

Format : AVC

Format/Info : Advanced Video Codec

Format profile : [email protected]

Format settings, CABAC : Yes

Format settings, ReFrames : 8 frames

Codec ID : V_MPEG4/ISO/AVC

Duration : 2h 6mn

Bit rate mode : Variable

Bit rate : 1 355 Kbps

Maximum bit rate : 17.5 Mbps

Width : 688 pixels

Height : 288 pixels

Display aspect ratio : 2.40:1

Original display aspect rat : 2.40:1

Frame rate mode : Constant

Frame rate : 23.976 fps

Color space : YUV

Chroma subsampling : 4:2:0

Bit depth : 8 bits

Scan type : Progressive

Bits/(Pixel*Frame) : 0.285

Stream size : 1.17 GiB (86%)

Writing library : x264 core 135 r2345

Encoding settings : cabac=1 / ref=8 / deblock=1:-1:-1 / analyse=0x3:0x133 / me=umh / subme=9 / psy=1 / psy_rd=1.00:0.00 / mixed_ref=1 / me_range=32 / chroma_me=1 / trellis=2 / 8x8dct=1 / cqm=0 / deadzone=21,11 / fast_pskip=0 / chroma_qp_offset=-2 / threads=3 / lookahead_threads=1 / sliced_threads=0 / nr=0 / decimate=1 / interlaced=0 / bluray_compat=0 / constrained_intra=0 / bframes=3 / b_pyramid=2 / b_adapt=2 / b_bias=0 / direct=3 / weightb=1 / open_gop=0 / weightp=2 / keyint=230 / keyint_min=23 / scenecut=40 / intra_refresh=0 / rc_lookahead=60 / rc=2pass / mbtree=1 / bitrate=1355 / ratetol=1.0 / qcomp=0.60 / qpmin=10 / qpmax=69 / qpstep=4 / cplxblur=20.0 / qblur=0.5 / vbv_maxrate=17500 / vbv_bufsize=17500 / nal_hrd=vbr / ip_ratio=1.40 / aq=1:1.00

Default : Yes

Forced : No

Audio

ID : 2

Format : AC-3

Format/Info : Audio Coding 3

Mode extension : CM (complete main)

Format settings, Endianness : Big

Codec ID : A_AC3

Duration : 2h 6mn

Bit rate mode : Constant

Bit rate : 192 Kbps

Channel(s) : 1 channel

Channel positions : Front: C

Sampling rate : 48.0 KHz

Compression mode : Lossy

Stream size : 174 MiB (12%)

Title : French

Language : French

Default : Yes

Forced : No