Télécharger Mac Arthur Le General Rebelle

(TRUEFRENCH = Vraie voix française)

(AC3 = Dolby Digital 5.1)

Qualité DVDRiP | TRUEFRENCH

Mac Arthur Le General Rebelle

Mac Arthur Le General Rebelle

Mac Arthur Le General Rebelle

Origine du film : Américain
Réalisateur : Joseph Sargent
Acteurs : Gregory Peck, Ivan Bonar, Ward Costello
Genre : Guerre
Durée : 2h 10min
Date de sortie : 1978
Année de production : 1977
Titre Original : Mac Arthur The Rebel General
Distribué par : Universal StudioCanal Vidéo

Mac Arthur Le General Rebelle

1942 : les attaques japonaises détruisent plus de la moitié de la flotte aérienne du secteur Est. Ses positions aux Philippines sont anéanties, MacArthur part mais promet de revenir. Avec de fascinantes victoires dans le Pacifique et une habile mainmise sur la démocratisation du Japon, MacArthur est de retour. Il aspire aussi à la présidence. En 1951, alors qu'il sert en Corée, son ego démesuré et son indiscipline poussent Truman à le congédier …

Nom de la release : Mac Arthur Le General Rebelle 1977 FRENCH.DVDRiP.XviD.AC3-HuSh 97033″ style= »display:inline; »>

Mac Arthur Le General Rebelle

Qualité : DVDRiP
Format : XviD
Langue : Français
Taille totale : 1370 Mo

Mac Arthur Le General Rebelle

Uptobox
Télécharger

Uploaded
Télécharger

TurboBit
Télécharger

Rapidgator
Télécharger

Uplea
Télécharger

1fichier
Télécharger

NFO :

Afficher / Masquer le texte d3e6bbab1413a5bfb04f2a293caac5a7″ class= »text_spoiler » style= »display:none; »>Format : AVI

Format/Info : Audio Video Interleave

File size : 1.37 GiB

Duration : 2h 4mn

Overall bit rate : 1 573 Kbps

Writing application : VirtualDubMod 1.5.10.2 (build 2542/release)

Writing library : VirtualDubMod build 2542/release

Video

ID : 0

Format : MPEG-4 Visual

Format profile : Advanced [email protected]

Format settings, BVOP : 1

Format settings, QPel : No

Format settings, GMC : No warppoints

Format settings, Matrix : Default (H.263)

Muxing mode : Packed bitstream

Codec ID : XVID

Codec ID/Hint : XviD

Duration : 2h 4mn

Bit rate : 1 373 Kbps

Width : 640 pixels

Height : 352 pixels

Display aspect ratio : 16:9

Frame rate : 25.000 fps

Color space : YUV

Chroma subsampling : 4:2:0

Bit depth : 8 bits

Scan type : Progressive

Compression mode : Lossy

Bits/(Pixel*Frame) : 0.244

Stream size : 1.19 GiB (87%)

Writing library : XviD 64

Audio

ID : 1

Format : AC-3

Format/Info : Audio Coding 3

Mode extension : CM (complete main)

Format settings, Endianness : Big

Codec ID : 2000

Duration : 2h 4mn

Bit rate mode : Constant

Bit rate : 192 Kbps

Channel(s) : 2 channels

Channel positions : Front: L R

Sampling rate : 48.0 KHz

Compression mode : Lossy

Stream size : 171 MiB (12%)

Alignment : Split accross interleaves

Interleave, duration : 64 ms (1.60 video frames)

Interleave, preload duratio : 500 ms