Telecharger Mad Max [DVDRiP] French

(TRUEFRENCH = Vraie voix française)

(AC3 = Dolby Digital 5.1)

BLURAY 720p | TRUEFRENCH

Mad Max

Mad Max

Mad Max

Origine du film : Australien
Réalisateur : George Miller
Acteurs : Mel Gibson, Joanne Samuel, Hugh Keays-Byrne
Genre : Action
Durée : 1h 25min
Date de sortie : 13 janvier 1982
Année de production : 1979
Note presse : Mad Max 4,0/5
Note spectateurs : Mad Max

; »>3,6/5 (6 240)
Bande annonce :

0ec99d2766d58e813abffb718f88426b

18819903″>Cliquez-ici pour voir la bande annonce 0ec99d2766d58e813abffb718f88426b »> 18819903

0ec99d2766d58e813abffb718f88426b

Mad Max

Sur les autoroutes désertées d'une Australie méconnaissable, une guerre sans merci oppose motards hors-la-loi et policiers Interceptor, qui tentent de triompher de la vermine au volant de voitures aux moteurs surgonflés. Dans ce monde en pleine décadence, les bons, les méchants, le manichéisme disparaissent… 30356″ style= »display:inline; »>

Mad Max

Qualité : BLURAY 720p
Format : MKV
Langue : Français
Sous-titre : Français
Découpé avec : Winrar
Nombre de fichiers : 4 Fichiers
Taille des fichiers : 999 Mo 624 Mo
Taille totale : 3621 Mo

Mad Max

[Liens Interchangeables]


Mad.Max.1979.720p.BluRay.x264-CiNEFiLE (3,4 Go)

Uptobox
Télécharger

Uplea
Télécharger

1fichier
Télécharger

Uploaded
Télécharger

Rapidgator
Télécharger

TurboBit
Télécharger

[ 1 lien Premium ]

Uptobox
Télécharger

Uplea
Télécharger

1fichier
Télécharger

Uploaded
Télécharger

TurboBit
Télécharger

NFO :

Afficher / Masquer le texte 0c1920d696ed9e6979723add8ca46fb1″ class= »text_spoiler » style= »display:none; »>Video
ID : 1
Format : AVC
Format/Info : Advanced Video Codec
Format profile : [email protected]
Format settings, CABAC : Yes
Format settings, ReFrames : 5 frames
Muxing mode : Header stripping
Codec ID : V_MPEG4/ISO/AVC
Duration : 1h 33mn
Bit rate : 5 210 Kbps
Width : 1 280 pixels
Height : 544 pixels
Display aspect ratio : 2.35:1
Frame rate : 23.976 fps
Color space : YUV
Chroma subsampling : 4:2:0
Bit depth : 8 bits
Scan type : Progressive
Bits/(Pixel*Frame) : 0.312
Stream size : 3.32 GiB (94%)
Writing library : x264 core 105 r1732 2b04482
Encoding settings : cabac=1 / ref=5 / deblock=1:0:0 / analyse=0x3:0x133 / me=umh / subme=7 / psy=1 / psy_rd=1.00:0.00 / mixed_ref=1 / me_range=16 / chroma_me=1 / trellis=1 / 8x8dct=1 / cqm=0 / deadzone=21,11 / fast_pskip=0 / chroma_qp_offset=-2 / threads=6 / sliced_threads=0 / nr=0 / decimate=1 / interlaced=0 / constrained_intra=0 / bframes=3 / b_pyramid=2 / b_adapt=1 / b_bias=0 / direct=1 / weightb=1 / open_gop=0 / weightp=2 / keyint=250 / keyint_min=23 / scenecut=40 / intra_refresh=0 / rc_lookahead=40 / rc=2pass / mbtree=1 / bitrate=5210 / ratetol=1.0 / qcomp=0.60 / qpmin=10 / qpmax=51 / qpstep=4 / cplxblur=20.0 / qblur=0.5 / ip_ratio=1.40 / aq=1:1.00
Language : English

Audio
ID : 2
Format : AC-3
Format/Info : Audio Coding 3
Mode extension : CM (complete main)
Muxing mode : Header stripping
Codec ID : A_AC3
Duration : 1h 33mn
Bit rate mode : Constant
Bit rate : 224 Kbps
Channel(s) : 2 channels
Channel positions : Front: L R
Sampling rate : 48.0 KHz
Bit depth : 16 bits
Compression mode : Lossy
Stream size : 149 MiB (4%)
Title : Fran?ais AC3 2.0
Language : French

Text
ID : 3
Format : PGS
Muxing mode : zlib
Codec ID : S_HDMV/PGS
Codec ID/Info : The same subtitle format used on BDs/HD-DVDs
Title : Fran?ais Forc?
Language : French