Télécharger Mad Max: Fury Road Blu-Ray 3D

Qualité BLURAY 3D | FRENCH

Mad Max: Fury Road

Mad Max: Fury Road

Origine du film : Australien, Américain
Réalisateur : George Miller
Acteurs : Tom Hardy, Charlize Theron, Zoë Kravitz
Genre : Action, Science fiction
Durée : 2h0min
Date de sortie : 14 mai 2015
Année de production : 2015
Distribué par : Warner Bros. France
Note presse : Mad Max: Fury Road 4,4/5
Note spectateurs : Mad Max: Fury Road 4,3/5 (10 350)
Bande annonce :

339fcb01a51a53add66baf40daa8709e

19553108″>Cliquez-ici pour voir la bande annonce 339fcb01a51a53add66baf40daa8709e »> 19553108

339fcb01a51a53add66baf40daa8709e

Mad Max: Fury Road

Le film est présenté hors-compétition au Festival de Cannes 2015. Hanté par un lourd passé, Mad Max estime que le meilleur moyen de survivre est de rester seul. Cependant, il se retrouve embarqué par une bande qui parcourt la Désolation à bord d’un véhicule militaire piloté par l’Imperator Furiosa. Ils fuient la Citadelle où sévit le terrible Immortan Joe qui s’est fait voler un objet irremplaçable. Enragé, ce Seigneur de guerre envoie ses hommes pour traquer les rebelles impitoyablement…
94942″ style= »display:inline; »>

Mad Max: Fury Road

Format : MKV

Mad Max: Fury Road

mad.max.fury.road.2015.3d.SBS.french.1080p.bluray.x264-sprinter

(7964 Mo)

[Liens Interchangeables entre hébergeurs: 7x 1000 Mo + 1x 964 Mo]

Uptobox
Télécharger

Uplea
Télécharger

1fichier
Télécharger

Uploaded
Télécharger

Rapidgator
Télécharger

TurboBit
Télécharger

[Liens PREMIUM]

Uptobox
Télécharger

Uplea
Télécharger

1fichier
Télécharger

Uploaded
Partie 1
Partie 2

TurboBit
Télécharger

NFO :

Afficher / Masquer le texte 881cf8b3ae164a097626431396924cdb » class= »text_spoiler » style= »display:none; »>General
Complete name : /mad.max.fury.road.2015.3d.SBS.1080p.bluray.x264-sprinter.Remix-Fr.mkv
Format : Matroska
Format version : Version 4 / Version 2
File size : 7.78 GiB
Duration : 2h 0mn
Overall bit rate : 9 249 Kbps
Encoded date : UTC 2015-08-15 15:37:47
Writing application : mkvmerge v7.6.0 (‘Garden of Dreams’) 64bit built on Feb 8 2015 15:43:43
Writing library : libebml v1.3.1 + libmatroska v1.4.2
DURATION : 02:00:23.392000000
NUMBER_OF_FRAMES : 225731
NUMBER_OF_BYTES : 404509952
_STATISTICS_WRITING_APP : mkvmerge v7.6.0 (‘Garden of Dreams’) 64bit built on Feb 8 2015 15:43:43
_STATISTICS_WRITING_DATE_UTC : 2015-08-15 15:37:47
_STATISTICS_TAGS : BPS DURATION NUMBER_OF_FRAMES NUMBER_OF_BYTES

Video
ID : 1
Format : AVC
Format/Info : Advanced Video Codec
Format profile : [email protected]
MultiView_Count : 2
MultiView_Layout : Side by Side (left eye first)
Format settings, CABAC : Yes
Format settings, ReFrames : 5 frames
Codec ID : V_MPEG4/ISO/AVC
Duration : 2h 0mn
Bit rate : 8 806 Kbps
Width : 1 920 pixels
Height : 800 pixels
Display aspect ratio : 2.40:1
Frame rate mode : Constant
Frame rate : 23.976 fps
Color space : YUV
Chroma subsampling : 4:2:0
Bit depth : 8 bits
Scan type : Progressive
Bits/(Pixel*Frame) : 0.239
Stream size : 7.25 GiB (93%)
Writing library : x264 core 148 r2579 73ae2d1
Encoding settings : cabac=1 / ref=5 / deblock=1:0:0 / analyse=0x3:0x133 / me=umh / subme=7 / psy=1 / psy_rd=1.00:0.00 / mixed_ref=1 / me_range=16 / chroma_me=1 / trellis=1 / 8x8dct=1 / cqm=0 / deadzone=21,11 / fast_pskip=0 / chroma_qp_offset=-2 / threads=12 / lookahead_threads=2 / sliced_threads=0 / nr=0 / decimate=1 / interlaced=0 / bluray_compat=0 / constrained_intra=0 / bframes=3 / b_pyramid=2 / b_adapt=1 / b_bias=0 / direct=1 / weightb=1 / open_gop=0 / weightp=2 / keyint=250 / keyint_min=23 / scenecut=40 / intra_refresh=0 / rc_lookahead=40 / rc=2pass / mbtree=1 / bitrate=8806 / ratetol=1.0 / qcomp=0.60 / qpmin=0 / qpmax=69 / qpstep=4 / cplxblur=20.0 / qblur=0.5 / ip_ratio=1.40 / aq=1:1.00
Language : English
Default : Yes
Forced : No
DURATION : 02:00:21.381000000
NUMBER_OF_FRAMES : 173140
NUMBER_OF_BYTES : 7945006878
_STATISTICS_WRITING_APP : mkvmerge v7.6.0 (‘Garden of Dreams’) 64bit built on Feb 8 2015 15:43:43
_STATISTICS_WRITING_DATE_UTC : 2015-08-15 15:37:47
_STATISTICS_TAGS : BPS DURATION NUMBER_OF_FRAMES NUMBER_OF_BYTES

Audio
ID : 2
Format : AC-3
Format/Info : Audio Coding 3
Mode extension : CM (complete main)
Format settings, Endianness : Big
Codec ID : A_AC3
Duration : 2h 0mn
Bit rate mode : Constant
Bit rate : 448 Kbps
Channel(s) : 6 channels
Channel positions : Front: L C R, Side: L R, LFE
Sampling rate : 48.0 KHz
Bit depth : 16 bits
Compression mode : Lossy
Stream size : 386 MiB (5%)
Title : French AC3 448kbps
Language : French
Default : Yes
Forced : No

Menu
00:00:00.000 : en:00:00:00.000
00:10:42.475 : en:00:10:42.475
00:19:06.437 : en:00:19:06.437
00:30:12.310 : en:00:30:12.310
00:42:55.615 : en:00:42:55.615
00:49:33.345 : en:00:49:33.345
00:59:55.175 : en:00:59:55.175
01:13:02.545 : en:01:13:02.545
01:22:08.924 : en:01:22:08.924
01:30:02.731 : en:01:30:02.731
01:40:39.867 : en:01:40:39.867
01:49:12.546 : en:01:49:12.546
01:53:06.279 : en:01:53:06.279

Source Video : Mad.Max.Fury.Road.2015.3D.1080p.BluRay.x264-SPRiNTER
Source Audio : Mad.Max.Fury.Road.2015.MULTi.1080p.BluRay.x264.AC3-LOST

Jeux Gratuit
15354131_1854970838071206_1069261547_o.png