Telecharger Magic Mike XXL [BLURAY 720p] French

Qualité BLURAY 720p | FRENCH (VFQ)

Magic Mike XXL

Magic Mike XXL

Origine du film : Américain
Réalisateur : Gregory Jacobs
Acteurs : Channing Tatum, Matt Bomer, Joe Manganiello
Genre : Comédie, Drame
Durée : 1h55min
Date de sortie : 8 juillet 2015
Année de production : 2015
Distribué par : Warner Bros. France
Note presse : Magic Mike XXL 3,0/5
Note spectateurs : Magic Mike XXL

; »>3/5 (674)
Bande annonce :

acff80a641090e4922d01a76bdaa800d

19551163″>Cliquez-ici pour voir la bande annonce acff80a641090e4922d01a76bdaa800d »> 19551163

acff80a641090e4922d01a76bdaa800d

Magic Mike XXL

Trois ans après que Mike ait renoncé à sa vie de strip-teaseur, les Kings of Tampa sont eux aussi prêts à jeter l’éponge. Mais ils veulent le faire à leur façon – en enflammant la piste de danse lors d’un ultime spectacle époustouflant à Myrtle Beach et en partageant l’affiche avec le légendaire Magic Mike. Alors qu’ils se préparent pour leur finale et qu’ils se rendent à Jacksonville et Savannah pour renouer avec d’anciennes connaissances et se faire de nouveaux amis, Mike et ses camarades s’initient à de nouvelles acrobaties et évoquent le passé de manière surprenante…
98520″ style= »display:inline; »>

Magic Mike XXL

Format : MKV

Magic Mike XXL

Magic.Mike.XXL.2015..FRENCH.720p.BluRay.x264-JUSTFORFUN

(5775 Mo)

[Liens Interchangeables entre hébergeurs: 5x 1000 Mo + 1x 775 Mo]

Uptobox
Télécharger

Uplea
Télécharger

1fichier
Télécharger

Uploaded
Télécharger

Rapidgator
Télécharger

TurboBit
Télécharger

1 Lien Premium – 5.6 Go

Uptobox Premium
Télécharger

Uplea Premium
Télécharger

1fichier Premium
Télécharger

Uploaded Premium
Télécharger

TurboBit Premium
Télécharger

NFO :

Afficher / Masquer le texte bc51a6b4932c2c19c0b310a867bedf56″ class= »text_spoiler » style= »display:none; »>General
Unique ID : 223303134338451555400404917411448354685 (0xA7FE9E8B163362CA8C82F25D2CDFF77D)
Complete name : C:Magic Mike XXL 2015 FRENCH 720p BluRay x264-JUSTFORFUN.mkv
Format : Matroska
Format version : Version 4 / Version 2
File size : 5.64 GiB
Duration : 1h 55mn
Overall bit rate : 7 004 Kbps
Encoded date : UTC 2015-09-24 07:48:01
Writing application : mkvmerge v7.8.0 (‘River Man’) 64bit built on Mar 27 2015 16:31:37
Writing library : libebml v1.3.1 + libmatroska v1.4.2
_STATISTICS_WRITING_APP : mkvmerge v7.8.0 (‘River Man’) 64bit built on Mar 27 2015 16:31:37
_STATISTICS_WRITING_DATE_UT : 2015-09-24 07:48:01
_STATISTICS_TAGS : BPS DURATION NUMBER_OF_FRAMES NUMBER_OF_BYTES
DURATION : 01:55:17.248000000
NUMBER_OF_FRAMES : 216164
NUMBER_OF_BYTES : 553379840

Video
ID : 1
Format : AVC
Format/Info : Advanced Video Codec
Format profile : [email protected]
Format settings, CABAC : Yes
Format settings, ReFrames : 12 frames
Codec ID : V_MPEG4/ISO/AVC
Duration : 1h 55mn
Bit rate : 6 224 Kbps
Width : 1 280 pixels
Height : 536 pixels
Display aspect ratio : 2.40:1
Frame rate mode : Constant
Frame rate : 23.976 fps
Color space : YUV
Chroma subsampling : 4:2:0
Bit depth : 8 bits
Scan type : Progressive
Bits/(Pixel*Frame) : 0.378
Stream size : 5.01 GiB (89%)
Title : [email protected]
Writing library : x264 core 142 r2409+42 04be48a tMod [[email protected] X86_64]
Encoding settings : cabac=1 / ref=12 / deblock=1:-3:-3 / analyse=0x3:0x133 / me=umh / subme=11 / psy=1 / fade_compensate=0.00 / psy_rd=1.05:1.00 / mixed_ref=1 / me_range=32 / chroma_me=1 / trellis=2 / 8x8dct=1 / cqm=0 / deadzone=21,11 / fast_pskip=0 / chroma_qp_offset=-4 / threads=6 / lookahead_threads=1 / sliced_threads=0 / nr=0 / decimate=0 / interlaced=0 / bluray_compat=0 / constrained_intra=0 / fgo=0 / bframes=8 / b_pyramid=2 / b_adapt=2 / b_bias=0 / direct=3 / weightb=1 / open_gop=0 / weightp=2 / keyint=240 / keyint_min=23 / scenecut=40 / intra_refresh=0 / rc_lookahead=60 / rc=crf / mbtree=1 / crf=15.0000 / qcomp=0.60 / qpmin=0:0:0 / qpmax=69:69:69 / qpstep=4 / vbv_maxrate=40000 / vbv_bufsize=30000 / crf_max=0.0 / nal_hrd=none / filler=0 / ip_ratio=1.40 / aq=1:1.00 / aq-sensitivity=10.00 / aq-factor=1.00:1.00:1.00 / aq2=0 / aq3=0
Language : English
Default : Yes
Forced : No

Audio
ID : 2
Format : AC-3
Format/Info : Audio Coding 3
Mode extension : CM (complete main)
Format settings, Endianness : Big
Codec ID : A_AC3
Duration : 1h 55mn
Bit rate mode : Constant
Bit rate : 640 Kbps
Channel(s) : 6 channels
Channel positions : Front: L C R, Side: L R, LFE
Sampling rate : 48.0 KHz
Compression mode : Lossy
Stream size : 528 MiB (9%)
Default : Yes
Forced : No

Menu
00:00:00.000 : en:Chapter 01
00:07:13.015 : en:Chapter 02
00:09:48.963 : en:Chapter 03
00:13:42.154 : en:Chapter 04
00:17:40.851 : en:Chapter 05
00:26:06.398 : en:Chapter 06
00:33:33.553 : en:Chapter 07
00:35:46.978 : en:Chapter 08
00:40:59.665 : en:Chapter 09
00:45:20.718 : en:Chapter 10
00:47:46.488 : en:Chapter 11
00:49:36.682 : en:Chapter 12
00:55:17.188 : en:Chapter 13
00:59:24.185 : en:Chapter 14
01:03:31.933 : en:Chapter 15
01:09:03.597 : en:Chapter 16
01:15:04.166 : en:Chapter 17
01:20:50.470 : en:Chapter 18
01:25:05.975 : en:Chapter 19
01:29:29.572 : en:Chapter 20
01:31:53.132 : en:Chapter 21
01:34:18.778 : en:Chapter 22
01:37:09.865 : en:Chapter 23
01:40:30.733 : en:Chapter 24
01:44:10.244 : en:Chapter 25
01:49:02.244 : en:Chapter

Jeux Gratuit
15354131_1854970838071206_1069261547_o.png