Télécharger Main dans la main French

Qualité DVDRiP | FRENCH

Main dans la main

Main dans la main

Main dans la main

Origine du film : Français
Réalisateur : Valérie Donzelli
Acteurs : Valérie Lemercier, Jérémie Elkaïm, Béatrice de Staël
Genre : Comédie dramatique
Durée : 1h 25min
Date de sortie : 19 décembre 2012
Année de production : 2011
Distribué par : Wild Bunch Distribution
Note presse : Main dans la main 3,0/5
Note spectateurs : Main dans la main 2,6/5 (982)
Bande annonce :

d491c1e7389422e5ead5341b4f187d13

19421348″>Cliquez-ici pour voir la bande annonce d491c1e7389422e5ead5341b4f187d13″> 19421348

d491c1e7389422e5ead5341b4f187d13

Main dans la main

Quand Hélène Marchal et Joachim Fox se rencontrent, ils ont chacun des vies bien différentes. Hélène dirige la prestigieuse école de danse de l’Opéra Garnier, Joachim, lui, est employé d’un miroitier de province.Mais une force étrange les unit. Au point que, sans qu’ils puissent comprendre ni comment, ni pourquoi, ils ne peuvent plus se séparer.

Nom de la release : Main Dans La Main 2012 FRENCH BRRiP XviD-TiggeR 25032″ style= »display:inline; »>

Main dans la main

Qualité : DVDRiP
Format : XviD
Langue : Français
Taille totale : 700 Mo

Main dans la main

Uptobox
Télécharger

1fichier
Télécharger

Uploaded
Télécharger

Rapidgator
Télécharger

TurboBit
Télécharger

NFO :

Afficher / Masquer le texte 2b8ed07bb1147a27a4dcc1c283979da1″ class= »text_spoiler » style= »display:none; »>Format/Info : Audio Video Interleave
File size : 703 MiB
Duration : 1h 20mn
Overall bit rate : 1 216 Kbps
Writing application : Lavf52.39.1

Video
ID : 0
Format : xvid
Codec ID : xvid
Duration : 1h 20mn
Bit rate : 1 075 Kbps
Width : 640 pixels
Height : 348 pixels
Display aspect ratio : 16:9
Frame rate : 25.000 fps
Bits/(Pixel*Frame) : 0.193
Stream size : 622 MiB (88%)

Audio
ID : 1
Format : MPEG Audio
Format version : Version 1
Format profile : Layer 3
Mode : Joint stereo
Mode extension : MS Stereo
Codec ID : 55
Codec ID/Hint : MP3
Duration : 1h 20mn
Bit rate mode : Constant
Bit rate : 128 Kbps
Channel(s) : 2 channels
Sampling rate : 48.0 KHz
Compression mode : Lossy
Stream size : 74.1 MiB (11%)
Alignment : Aligned on interleaves
Interleave, duration : 24 ms (0.60 video frame)
Interleave, preload duration : 24 ms
Writing library : LAME3.96.1