Télécharger Maneater French

Qualité DVDRiP | FRENCH

Maneater

Maneater

Maneater

Origine : Américain
Réalisateur : Timothy Busfield
Durée : 2h 45min
Avec : Sarah Chalke, Gregory Harrison, Maria Conchita Alonso
Genre : Comédie
Date de sortie : inconnue

Maneater

Superficielle, mondaine et rigolote, Clarissa Alpert est également une vraie fille à papa. A l’aube de ses 32 ans, elle réalise soudain qu’elle est toujours célibataire et commence à paniquer à l’idée de rester seule toute sa vie. Habituée à voir ses désirs se concrétiser, elle jette son dévolu sur Aaron Mason, un producteur sexy qui vient de s’installer en ville. Avec l’aide de ses proches, elle élabore un plan pour lui passer la corde au cou…

Nom de la release : Maneater 2009 FRENCH DVDRiP XViD-STVFRV 32327″ style= »display:inline; »>

Qualité : DVDRiP
Format : XviD
Langue : Français
Taille totale : 1186 Mo

1fichier
Télécharger

Uptobox
Télécharger

Free
Upload en cour…

Uploaded
Télécharger

Rapidgator
Télécharger

TurboBit
Télécharger

NFO :

Afficher / Masquer le texte fdce59d30bd13129c046cf9e75d2c834″ class= »text_spoiler » style= »display:none; »>Format : AVI
Format/Info : Audio Video Interleave
File size : 1.14 GiB
Duration : 2h 46mn
Overall bit rate : 983 Kbps
Writing application : VirtualDubMod 1.5.1.1a (build 1155/release)
Writing library : VirtualDubMod build 1155/release

Video
ID : 0
Format : MPEG-4 Visual
Format profile : Advanced [email protected]
Format settings, BVOP : 2
Format settings, QPel : No
Format settings, GMC : No warppoints
Format settings, Matrix : Default (H.263)
Muxing mode : Packed bitstream
Codec ID : XVID
Codec ID/Hint : XviD
Duration : 2h 46mn
Bit rate : 873 Kbps
Width : 576 pixels
Height : 432 pixels
Display aspect ratio : 4:3
Frame rate : 25.000 fps
Color space : YUV
Chroma subsampling : 4:2:0
Bit depth : 8 bits
Scan type : Progressive
Compression mode : Lossy
Bits/(Pixel*Frame) : 0.140
Stream size : 1.01 GiB (89%)
Writing library : XviD 1.1.2 (UTC 2006-11-01)

Audio
ID : 1
Format : MPEG Audio
Format version : Version 1
Format profile : Layer 3
Codec ID : 55
Codec ID/Hint : MP3
Duration : 2h 46mn
Bit rate mode : Variable
Bit rate : 97.7 Kbps
Channel(s) : 2 channels
Sampling rate : 48.0 KHz
Compression mode : Lossy
Stream size : 116 MiB (10%)
Alignment : Aligned on interleaves
Interleave, duration : 24 ms (0.60 video frame)
Interleave, preload duration : 391 ms

Jeux Gratuit
15354131_1854970838071206_1069261547_o.png