Telecharger Mars Attacks! [BLURAY 720p] French

(TRUEFRENCH = Vraie voix française)

BLURAY 720p | TRUEFRENCH

Mars Attacks!

Mars Attacks!

Mars Attacks!

Origine du film : Américain
Réalisateur : Tim Burton
Acteurs : Jack Nicholson, Glenn Close, Pierce Brosnan
Genre : Fantastique, Comédie, Science fiction
Durée : 1h 46min
Date de sortie : 26 février 1997
Année de production : 1996
Distribué par : Warner Bros. France
Note spectateurs : Mars Attacks! 3,4/5 (18 968)
Bande annonce :

be6a5477e664fc35ce2e28f09e0c98bc

19418834″>Cliquez-ici pour voir la bande annonce be6a5477e664fc35ce2e28f09e0c98bc »> 19418834

be6a5477e664fc35ce2e28f09e0c98bc

Mars Attacks!

Effervescence sur la planète Terre. Les petits bonshommes verts ont enfin décidé de nous rendre visite. Ils sont sur le point d'atterrir dans leurs rutilantes soucoupes. La fièvre des grands jours s'empare de l'Amerique dans une comédie de science-fiction nostalgique des années cinquante.

Nom de la release : Mars Attacks 1996 TRUEFRENCH 720p BluRay x264 24361″ style= »display:inline; »>

Mars Attacks!

Qualité : BLURAY 720p
Format : MKV
Langue : Français
Nombre de fichiers : 5 Fichiers
Taille des fichiers : 999 Mo + 274 Mo
Taille totale : 4270 Mo

Mars Attacks!

[Liens Interchangeables]

1fichier.com
Télécharger

Uptobox.com
Télécharger

Free
Télécharger

Uploaded.net
Télécharger

Rapidgator.net
Télécharger

TurboBit.net
Télécharger

[ 1 lien Premium ]

1fichier.com Premium
Télécharger

Uptobox.com Premium
Télécharger

Rapidgator Premium
Télécharger

Free Premium
Télécharger

TurboBit.net Premium
Télécharger

Uploaded.net Premium
Télécharger

NFO :

Afficher / Masquer le texte 6a4e896a7ae22c8bf813123570673169″ class= »text_spoiler » style= »display:none; »>General
Complete name : Mars.Attacks.720p.Truefrench.mkv
Format : Matroska
Format version : Version 2
File size : 4.17 GiB
Duration : 1h 41mn
Overall bit rate : 5 883 Kbps
Encoded date : UTC 2012-03-09 00:02:59
Writing application : mkvmerge v5.3.0 (‘I could have danced’) built on Feb 9 2012 10:38:07
Writing library : libebml v1.2.3 + libmatroska v1.3.0

Video
ID : 1
Format : AVC
Format/Info : Advanced Video Codec
Format profile : [email protected]
Format settings, CABAC : Yes
Format settings, ReFrames : 5 frames
Muxing mode : Header stripping
Codec ID : V_MPEG4/ISO/AVC
Duration : 1h 41mn
Bit rate : 5 277 Kbps
Width : 1 280 pixels
Height : 528 pixels
Display aspect ratio : 2.40:1
Frame rate : 25.000 fps
Original frame rate : 23.976 fps
Color space : YUV
Chroma subsampling : 4:2:0
Bit depth : 8 bits
Scan type : Progressive
Bits/(Pixel*Frame) : 0.312
Stream size : 3.81 GiB (91%)
Writing library : x264 core 104 r1703 cd21d05
Encoding settings : cabac=1 / ref=5 / deblock=1:0:0 / analyse=0x3:0x113 / me=umh / subme=7 / psy=1 / psy_rd=1.00:0.00 / mixed_ref=1 / me_range=16 / chroma_me=1 / trellis=1 / 8x8dct=1 / cqm=0 / deadzone=21,11 / fast_pskip=0 / chroma_qp_offset=-2 / threads=12 / sliced_threads=0 / nr=0 / decimate=1 / interlaced=0 / constrained_intra=0 / bframes=3 / b_pyramid=2 / b_adapt=1 / b_bias=0 / direct=1 / weightb=1 / open_gop=0 / weightp=2 / keyint=250 / keyint_min=23 / scenecut=40 / intra_refresh=0 / rc_lookahead=40 / rc=2pass / mbtree=1 / bitrate=5277 / ratetol=1.0 / qcomp=0.60 / qpmin=10 / qpmax=51 / qpstep=4 / cplxblur=20.0 / qblur=0.5 / ip_ratio=1.40 / aq=1:1.00
Language : French
Default : Yes
Forced : No

Audio
ID : 2
Format : AC-3
Format/Info : Audio Coding 3
Mode extension : CM (complete main)
Muxing mode : Header stripping
Codec ID : A_AC3
Duration : 1h 41mn
Bit rate mode : Constant
Bit rate : 384 Kbps
Channel(s) : 6 channels
Channel positions : Front: L C R, Side: L R, LFE
Sampling rate : 48.0 KHz
Bit depth : 16 bits
Compression mode : Lossy
Delay relative to video : 200ms
Stream size : 279 MiB (7%)
Language : French
Default : Yes
Forced : No

Jeux Gratuit
15354131_1854970838071206_1069261547_o.png