Telecharger Masks [BLURAY 720p] French

(TRUEFRENCH = Vraie voix française)

(AC3 = Dolby Digital 5.1)

BLURAY 720p | MULTiLANGUES (Avec TRUEFRENCH) | AC3

Masks

Masks

Masks

Origine du film : Allemand
Réalisateur : Andreas Marschall
Acteurs : Peter Donath, Stefanie GrabnerGenreEpouvante-horreurNationalitéAllemandSpectateurs  2,4pour 49 notesdont 15 critiquesVoir la bande-annonceSe connecter sur mon AlloCinéTweet  
Genre : Epouvante-horreur, Thriller
Durée : 1h 48min
Année de production : 2011
Note spectateurs : Masks 2,4/5 (49)
Bande annonce :

e3c0d6ed5bc1920cd673825bb22a6cb8

19462279″>Cliquez-ici pour voir la bande annonce e3c0d6ed5bc1920cd673825bb22a6cb8″> 19462279

e3c0d6ed5bc1920cd673825bb22a6cb8

Masks

Après plusieurs échecs dans divers conservatoires d'art dramatique, Stella est enfin retenue dans un atelier privé aux méthodes extrêmement particulières…

Nom de la release : Masks 2011 MULTi TRUEFRENCH AC3 720p BluRay x264-STEAL 27003″ style= »display:inline; »>

Qualité : BLURAY 720p
Format : MKV
Sous-titre : Français
Découpé avec : Winrar
Nombre de fichiers : 4 Fichiers
Taille des fichiers : 1002 Mo 649 Mo
Taille totale : 3655 Mo

[Liens Interchangeables]

1fichier
Télécharger

Uptobox
Télécharger

Free
Télécharger

Uploaded
Télécharger

Rapidgator
Upload en cour…

TurboBit
Télécharger

[1 Lien PREMIUM]

1fichier
Télécharger

Uptobox
Télécharger

Free
Upload en cour…

Uploaded
Télécharger

TurboBit
Télécharger

NFO :

Afficher / Masquer le texte 48c67883a78ff7ad0436332f31e39b70″ class= »text_spoiler » style= »display:none; »>File size : 3.57 GiB
Duration : 1h 44mn
Overall bit rate : 4 903 Kbps
Movie name : Masks 2011 High [email protected] Resolution 1280p/ 720p Frame rate 25 fps Release Blondin000
Encoded date : UTC 2013-05-28 16:53:27
Writing application : mkvmerge v6.0.0 ('Coming Up For Air') built on Jan 20 2013 09:52:00
Writing library : libebml v1.3.0 libmatroska v1.4.0

Video
ID : 1
Format : AVC
Format/Info : Advanced Video Codec
Format profile : [email protected]
Format settings, CABAC : Yes
Format settings, ReFrames : 9 frames
Codec ID : V_MPEG4/ISO/AVC
Duration : 1h 44mn
Bit rate : 4 000 Kbps
Width : 1 280 pixels
Height : 720 pixels
Display aspect ratio : 16:9
Frame rate : 25.000 fps
Color space : YUV
Chroma subsampling : 4:2:0
Bit depth : 8 bits
Scan type : Progressive
Bits/(Pixel*Frame) : 0.174
Stream size : 2.85 GiB (80%)
Title : Masks 2011 High [email protected] Resolution 1280p/ 720p Frame rate 25 fps Release Blondin000
Writing library : x264 core 130 r2273 b3065e6
Encoding settings : cabac=1 / ref=9 / deblock=1:-3:-3 / analyse=0x3:0x113 / me=umh / subme=11 / psy=1 / psy_rd=0.95:0.25 / mixed_ref=1 / me_range=128 / chroma_me=1 / trellis=2 / 8x8dct=1 / cqm=0 / deadzone=21,11 / fast_pskip=0 / chroma_qp_offset=-3 / threads=12 / lookahead_threads=1 / sliced_threads=0 / nr=0 / decimate=1 / interlaced=0 / bluray_compat=0 / constrained_intra=0 / bframes=5 / b_pyramid=2 / b_adapt=2 / b_bias=0 / direct=1 / weightb=1 / open_gop=1 / weightp=2 / keyint=240 / keyint_min=23 / scenecut=40 / intra_refresh=0 / rc_lookahead=240 / rc=2pass / mbtree=1 / bitrate=4000 / ratetol=1.0 / qcomp=0.60 / qpmin=0 / qpmax=69 / qpstep=4 / cplxblur=20.0 / qblur=0.5 / vbv_maxrate=50000 / vbv_bufsize=50000 / nal_hrd=none / ip_ratio=1.40 / aq=2:1.00
Language : English
Color primaries : BT.709-5, BT.1361, IEC 61966-2-4, SMPTE RP177
Transfer characteristics : BT.709-5, BT.1361
Matrix coefficients : BT.709-5, BT.1361, IEC 61966-2-4 709, SMPTE RP177

Audio #1
ID : 2
Format : AC-3
Format/Info : Audio Coding 3
Mode extension : CM (complete main)
Codec ID : A_AC3
Duration : 1h 44mn
Bit rate mode : Constant
Bit rate : 448 Kbps
Channel(s) : 6 channels
Channel positions : Front: L C R, Side: L R, LFE
Sampling rate : 48.0 KHz
Bit depth : 16 bits
Compression mode : Lossy
Stream size : 334 MiB (9%)
Title : VFF AC3 5.1_448 kbps/ 48khz
Language : French

Audio #2
ID : 3
Format : AC-3
Format/Info : Audio Coding 3
Mode extension : CM (complete main)
Codec ID : A_AC3
Duration : 1h 44mn
Bit rate mode : Constant
Bit rate : 448 Kbps
Channel(s) : 6 channels
Channel positions : Front: L C R, Side: L R, LFE
Sampling rate : 48.0 KHz
Bit depth : 16 bits
Compression mode : Lossy
Stream size : 334 MiB (9%)
Title : VO AC3 5.1_448 kbps/ 48khz
Language : dum

Text #1
ID : 4
Format : PGS
Muxing mode : zlib
Codec ID : S_HDMV/PGS
Codec ID/Info : The same subtitle format used on BDs/HD-DVDs
Title : FR Complets Original Bluray
Language : French

Text #2
ID : 5
Format : UTF-8
Codec ID : S_TEXT/UTF8
Codec ID/Info : UTF-8 Plain Text
Title : FR Complets srt
Language : French

Menu
00:00:00.000 : en:00:00:00.000
00:03:57.840 : en:00:03:57.840
00:14:26.440 : en:00:14:26.440
00:19:38.000 : en:00:19:38.000
00:28:32.800 : en:00:28:32.800
00:32:20.000 : en:00:32:20.000
00:40:30.000 : en:00:40:30.000
00:56:19.800 : en:00:56:19.800
01:06:54.400 : en:01:06:54.400
01:14:37.920 : en:01:14:37.920
01:23:47.480 : en:01:23:47.480
01:31:05.680 : en:01:31:05.680
01:40:11.720 : en:01:40:11.720