Telecharger Matrix – La trilogie (L'intégrale) [BLURAY 720p] French

(TRUEFRENCH = Vraie voix française)

BLURAY 720p | MULTiLANGUES (Avec TRUEFRENCH)

Matrix - La trilogie (L'intégrale)

Matrix - La trilogie (L'intégrale)

Matrix - La trilogie (L'intégrale)

Matrix 1
Origine du film : Américain
Réalisateur : Lana Wachowski
Acteurs : Keanu Reeves, Laurence Fishburne, Carrie-Anne Moss
Genre : Action
Durée : 2h15min
Date de sortie : 23 juin 1999
Année de production : 1999
Titre Original : The Matrix
Distribué par : Warner Bros. France
Note presse : Matrix - La trilogie (L'intégrale) 3,4/5
Note spectateurs : Matrix - La trilogie (L'intégrale) 4,3/5 (49 167)

Matrix 2
Origine du film : Américain
Réalisateur : Andy Wachowski
Acteurs : Keanu Reeves, Laurence Fishburne, Carrie-Anne Moss
Genre : Science fiction
Durée : 2h18min
Date de sortie : 16 mai 2003
Année de production : 2003
Titre Original : The Matrix Reloaded
Distribué par : Warner Bros. France
Note presse : Matrix - La trilogie (L'intégrale) 3,2/5
Note spectateurs : Matrix - La trilogie (L'intégrale) 3,5/5 (25 322)

Matrix 3
Origine du film : Américain
Réalisateur : Andy Wachowski
Acteurs : Keanu Reeves, Laurence Fishburne, Carrie-Anne Moss
Genre : Science fiction
Durée : 2h8min
Date de sortie : 5 novembre 2003
Année de production : 2003
Titre Original : The Matrix Revolutions
Distribué par : Warner Bros. France
Note presse : Matrix - La trilogie (L'intégrale) 2,9/5
Note spectateurs : Matrix - La trilogie (L'intégrale) 3,3/5 (24 003)

Matrix - La trilogie (L'intégrale)

Matrix 1
Programmeur anonyme dans un service administratif le jour, Thomas Anderson devient Neo la nuit venue. Sous ce pseudonyme, il est l’un des pirates les plus recherchés du cyber-espace. A cheval entre deux mondes, Neo est assailli par d’étranges songes et des messages cryptés provenant d’un certain Morpheus. Celui-ci l’exhorte à aller au-delà des apparences et à trouver la réponse à la question qui hante constamment ses pensées : qu’est-ce que la Matrice ? Nul ne le sait, et aucun homme n’est encore parvenu à en percer les defenses. Mais Morpheus est persuadé que Neo est l’Elu, le libérateur mythique de l’humanité annoncé selon la prophétie. Ensemble, ils se lancent dans une lutte sans retour contre la Matrice et ses terribles agents…

Matrix 2
Neo apprend à mieux contrôler ses dons naturels, alors même que Sion s’apprête à tomber sous l’assaut de l’Armée des Machines. D’ici quelques heures, 250 000 Sentinelles programmées pour anéantir notre espèce envahiront la dernière enclave humaine de la Terre.Mais Morpheus galvanise les citoyens de Sion en leur rappelant la Parole de l’Oracle : il est encore temps pour l’Elu d’arrêter la guerre contre les Machines. Tous les espoirs se reportent dès lors sur Neo. Au long de sa périlleuse plongée au sein de la Matrix et de sa propre destinée, ce dernier sera confronté à une résistance croissante, une vérité encore plus aveuglante, un choix encore plus douloureux que tout ce qu’il avait jamais imaginé.

Matrix 3
La longue quête de liberté des rebelles culmine en une bataille finale explosive. Tandis que l’armée des Machines sème la désolation sur Zion, ses citoyens organisent une défense acharnée. Mais pourront-ils retenir les nuées implacables des Sentinelles en attendant que Neo s’approprie l’ensemble de ses pouvoirs et mette fin à la guerre ?L’agent Smith est quant à lui parvenu à prendre possession de l’esprit de Bane, l’un des membres de l’équipage de l’aéroglisseur. De plus en plus puissant, il est désormais incontrôlable et n’obéit plus aux Machines : il menace de détruire leur empire ainsi que le monde réel et la Matrice… 45857″ style= »display:inline; »>

Qualité : BLURAY 720p
Format : MKV
Langue : Anglais, Français
Sous-titre : Français
Découpé avec : Winrar

Matrix.MULTi.720p.BluRay.x264.AC3-LKT ( 7024 Mo)

[8 Liens Interchangeables : 7 x 1000 Mo 1 x 24 Mo]

1fichier
Télécharger

Uptobox
Télécharger

Uploaded
Télécharger

Rapidgator
Télécharger

TurboBit
Télécharger

[1 Lien PREMIUM : 1 x 6.85 GB]

1fichier
Télécharger

Uptobox
Télécharger

TurboBit
Télécharger

[2 Liens PREMIUM]

Uploaded
Partie 1
Partie 2

NFO :

Afficher / Masquer le texte 6d29381f69d3c09da20eac8ab2a08a50″ class= »text_spoiler » style= »display:none; »>██████████████████████████████████████████████████████████████████████████████
███▒▒▒▒▒▒▒▒▒▒▒▒▒▒▒▒▒▒▒▒▒▒▒▒▒▒▒▒▒▒▒▒▒▒▒▒▒▒▒▒▒▒▒▒▒▒▒▒▒▒▒▒▒▒▒▒▒▒▒▒▒▒▒▒▒▒▒▒▒▒▒▒███
██ ████████████████████████████████████████████████████████████████████████ ██
██ █ █ ██
██ █ Matrix MULTI 720p BluRay x264 AC3-LKT █ ██
██ █ █ ██
██ ████████████████████████████████████████████████████████████████████████ ██
███▒▒▒▒▒▒▒▒▒▒▒▒▒▒▒▒▒▒▒▒▒▒▒▒▒▒▒▒▒▒▒▒▒▒▒▒▒▒▒▒▒▒▒▒▒▒▒▒▒▒▒▒▒▒▒▒▒▒▒▒▒▒▒▒▒▒▒▒▒▒▒▒███
██████████████████████████████████████████████████████████████████████████████
██ ██ ██ ██
██ ██ ██ ██
██ ██ ██ ██
██ ██ ██ ██
██ ██ ██ ██
██ ██ ██ ██
██ ██ ██ ██
██ ██ ██ ██
████████████████████████ ████████████████████████
██ ██ ██ ██
██ Video ██ ██ Audio ██
██ ██ ██ ██
████████████████████████ ████████████████████████
██ ██ ██ ██
██ ██ ██ ██
██ ██ ██ ██
██ ██ ██ ██
██ ██ ██ ██
██ ██ ██ ██
██ ██ ██ ██
██ ██ ██ ██
██████████████████████████████ ██████████████████████████████
██ ██ ██ ██
██ Format : MKV ██ ██ ██
██ ██ ██ Codec : AC3 ██
██ Codec : X264 ██ ██ ██
██ ██ ██ Debit : 640 kbps ██
██ Duree : 2h16 ██ ██ ██
██ ██ ██ Canaux : 6 ██
██ Debit : 6000 kbps ██ ██ ██
██ ██ ██ F/ECH : 48.0Hz ██
██ FPS : 23.976 ██ ██ ██
██ ██ ██ Langue : ██
██ Resolution : ██ ██ ██
██ 1280 pxls x 720 pxls ██ ██ MULTI ██
██ ██ ██ VFF et VOSTFR ██
██████████████████████████████ ██████████████████████████████
██ ██
██ ██
██ ██
██ ██
██ ██
██ ██
██ ██
████████████████████████████
██ ██
████████ Taille Total : 6.86 Go ████████
██ ██ ██ ██
██ ████████████████████████████ ██
██ ██

Matrix.Reloaded.MULTi.720p.BluRay.x264-DREAM ( 8386 Mo)

[9 Liens Interchangeables : 8 x 1000 Mo 1 x 386 Mo]

1fichier
Télécharger

Uptobox
Télécharger

Uploaded
Télécharger

Rapidgator
Télécharger

TurboBit
Télécharger

[1 Lien PREMIUM : 1 x 8.18 GB]

1fichier
Télécharger

Uptobox
Télécharger

TurboBit
Télécharger

[2 Liens PREMIUM]

Uploaded
Partie 1
Partie 2

NFO:

Afficher / Masquer le texte 77c6db921a67eb47baa30fe3ed0f23fc » class= »text_spoiler » style= »display:none; »>General

Complete name : Matrix.Reloaded.MULTi.720p.Bluray.x264-DREAM.mkv
Format : Matroska
File size : 8.19 GiB
Duration : 2h 18mn
Overall bit rate : 8 481 Kbps
Encoded date : UTC 2011-02-07 14:32:05
Writing application : mkvmerge v3.2.0 ('Beginnings') built on Feb 12 2010 16:46:17
Writing library : libebml v0.7.9 libmatroska v0.8.1

Video
ID : 1
Format : AVC
Format/Info : Advanced Video Codec
Format profile : [email protected]
Format settings, CABAC : Yes
Format settings, ReFrames : 9 frames
Codec ID : V_MPEG4/ISO/AVC
Duration : 2h 18mn
Bit rate : 7 199 Kbps
Width : 1 280 pixels
Height : 720 pixels
Display aspect ratio : 16:9
Frame rate : 23.976 fps
Color space : YUV
Chroma subsampling : 4:2:0
Bit depth : 8 bits
Scan type : Progressive
Bits/(Pixel*Frame) : 0.326
Stream size : 6.79 GiB (83%)
Writing library : x264 core 98 r1649 20cbe10
Encoding settings : cabac=1 / ref=9 / deblock=1:-3:-3 / analyse=0x3:0x113 / me=umh / subme=10 / psy=1 / psy_rd=1.00:0.00 / mixed_ref=1 / me_range=64 / chroma_me=1 / trellis=2 / 8x8dct=1 / cqm=0 / deadzone=21,11 / fast_pskip=0 / chroma_qp_offset=-2 / threads=12 / sliced_threads=0 / nr=0 / decimate=1 / interlaced=0 / constrained_intra=0 / bframes=5 / b_pyramid=2 / b_adapt=2 / b_bias=0 / direct=1 / weightb=1 / weightp=2 / keyint=250 / keyint_min=25 / scenecut=40 / intra_refresh=0 / rc_lookahead=40 / rc=2pass / mbtree=1 / bitrate=7199 / ratetol=1.0 / qcomp=0.60 / qpmin=10 / qpmax=51 / qpstep=4 / cplxblur=20.0 / qblur=0.5 / vbv_maxrate=50000 / vbv_bufsize=50000 / ip_ratio=1.40 / aq=1:1.00 / nal_hrd=none
Language : English

Audio #1
ID : 2
Format : AC-3
Format/Info : Audio Coding 3
Mode extension : CM (complete main)
Codec ID : A_AC3
Duration : 2h 18mn
Bit rate mode : Constant
Bit rate : 640 Kbps
Channel(s) : 6 channels
Channel positions : Front: L C R, Side: L R, LFE
Sampling rate : 48.0 KHz
Bit depth : 16 bits
Compression mode : Lossy
Stream size : 633 MiB (8%)
Language : French

Audio #2
ID : 3
Format : AC-3
Format/Info : Audio Coding 3
Mode extension : CM (complete main)
Codec ID : A_AC3
Duration : 2h 18mn
Bit rate mode : Constant
Bit rate : 640 Kbps
Channel(s) : 6 channels
Channel positions : Front: L C R, Side: L R, LFE
Sampling rate : 48.0 KHz
Bit depth : 16 bits
Compression mode : Lossy
Stream size : 633 MiB (8%)
Language : English

Text
ID : 4
Format : UTF-8
Codec ID : S_TEXT/UTF8
Codec ID/Info : UTF-8 Plain Text
Language : French

Matrix.Revolution.MULTi.720p.BluRay.x264-DREAM ( 7842 Mo)

[8 Liens Interchangeables : 7 x 1000 Mo 1 x 842 Mo]

1fichier
Télécharger

Uptobox
Télécharger

Uploaded
Télécharger

Rapidgator
Télécharger

TurboBit
Télécharger

[1 Lien PREMIUM : 1 x 8.18 GB]

1fichier
Télécharger

Uptobox
Télécharger

TurboBit
Télécharger

[2 Liens PREMIUM]

Uploaded
Partie 1
Partie 2

NFO:

Afficher / Masquer le texte 94d1ef10a574fdd3a1640c1d7d5f07ff » class= »text_spoiler » style= »display:none; »>TITRE ORIGINAL………: Matrix Revolutions
DUR╔E………………: 02h08min
RELEASE TAILLE………: 7.66 GiB
VID╔O CODEC…………: x264, L4.1, 2pass
TOTAL BITRATE……….: 8 480 Kbps
VID╔O BITRATE……….: 7 199 Kbps
R╔SOLUTION………….: 1280x720p
FRAMERATE…………..: 23.976 FPS
AUDIO 1…………….: Franτais Ac3 @ 640 Kbps VFF
AUDIO 2…………….: Anglais Ac3 @ 640 Kbps
SOUS-TITRES 1……….: Francais
SOURCE……………..: Bluray Z2
RELEASE DATE………..: 30/01/2011
ENCODER…………….: Cronos
GENRE………………: Science fiction , Action