Telecharger McCanick [BLURAY 720p] French

(TRUEFRENCH = Vraie voix française)

BLURAY 720p | TRUEFRENCH

McCanick

McCanick

McCanick

Origine du film : Américain
Réalisateur : Josh C. Waller
Acteurs : David Morse, Cory Monteith, Mike Vogel
Genre : Policier
Durée : 1h36min
Année de production : 2013
Note spectateurs : McCanick

; »>3/5 (1)
Bande annonce :

ea225ca45f32b954c6b53b8d9abb7408

19537126″>Cliquez-ici pour voir la bande annonce ea225ca45f32b954c6b53b8d9abb7408″> 19537126

ea225ca45f32b954c6b53b8d9abb7408

McCanick

Le policier le plus intègre de Philadelphie a une ultime journée pour résoudre la plus grosse enquête de sa carrière. Un secret resté enseveli pendant plus de sept ans. Mais aujourd’hui c’est l’heure du jugement.
50163″ style= »display:inline; »>

McCanick

Qualité : BLURAY 720p
Format : MKV
Langue : Français
Découpé avec : Winrar
Nombre de fichiers : 4 Fichiers
Taille des fichiers : 1000 Mo + 730 Mo

McCanick

[4 Liens Interchangeables : 3 x 1000 Mo + 1 x 730 Mo]

McCanick 2013 FRENCH 720p BluRay x264-CARPEDIEM ( 3730 Mo)

1fichier
Télécharger

Uptobox
Télécharger

Free
Télécharger

Uploaded
Télécharger

Rapidgator
Télécharger

TurboBit
Télécharger

[1 Lien PREMIUM : 1 x 3.64 GB]

1fichier
Télécharger

Uptobox
Télécharger

Free
Télécharger

Uploaded
Télécharger

Rapidgator
Télécharger

TurboBit
Télécharger

NFO :

Afficher / Masquer le texte d4ee296d6b37bd9c7baa07ced234d775″ class= »text_spoiler » style= »display:none; »>Format : Matroska
Format version : Version 4 / Version 2
File size : 3.64 GiB
Duration : 1h 36mn
Overall bit rate : 5 415 Kbps
Encoded date : UTC 2014-04-10 18:14:06
Writing application : mkvmerge v6.8.0 (‘Theme for Great Cities’) 64bit built on Mar 2 2014 21:34:26
Writing library : libebml v1.3.0 + libmatroska v1.4.1

Video
ID : 1
Format : AVC
Format/Info : Advanced Video Codec
Format profile : [email protected]
Format settings, CABAC : Yes
Format settings, ReFrames : 5 frames
Codec ID : V_MPEG4/ISO/AVC
Duration : 1h 36mn
Bit rate : 4 975 Kbps
Width : 1 280 pixels
Height : 576 pixels
Display aspect ratio : 2.222
Frame rate : 23.976 fps
Color space : YUV
Chroma subsampling : 4:2:0
Bit depth : 8 bits
Scan type : Progressive
Bits/(Pixel*Frame) : 0.281
Stream size : 3.27 GiB (90%)
Writing library : x264 core 133 r2334 a3ac64b
Encoding settings : cabac=1 / ref=5 / deblock=1:0:0 / analyse=0x3:0x133 / me=umh / subme=8 / psy=1 / psy_rd=1.00:0.00 / mixed_ref=1 / me_range=16 / chroma_me=1 / trellis=1 / 8x8dct=1 / cqm=0 / deadzone=21,11 / fast_pskip=0 / chroma_qp_offset=-2 / threads=12 / lookahead_threads=2 / sliced_threads=0 / nr=0 / decimate=1 / interlaced=0 / bluray_compat=0 / constrained_intra=0 / bframes=3 / b_pyramid=2 / b_adapt=1 / b_bias=0 / direct=1 / weightb=1 / open_gop=0 / weightp=2 / keyint=250 / keyint_min=23 / scenecut=40 / intra_refresh=0 / rc_lookahead=40 / rc=2pass / mbtree=1 / bitrate=4975 / ratetol=1.0 / qcomp=0.60 / qpmin=0 / qpmax=69 / qpstep=4 / cplxblur=20.0 / qblur=0.5 / ip_ratio=1.40 / aq=1:1.00
Language : English

Audio
ID : 2
Format : AC-3
Format/Info : Audio Coding 3
Mode extension : CM (complete main)
Codec ID : A_AC3
Duration : 1h 36mn
Bit rate mode : Constant
Bit rate : 448 Kbps
Channel(s) : 6 channels
Channel positions : Front: L C R, Side: L R, LFE
Sampling rate : 48.0 KHz
Bit depth : 16 bits
Compression mode : Lossy
Stream size : 309 MiB (8%)
Title : French
Language : French

Jeux Gratuit
15354131_1854970838071206_1069261547_o.png