Telecharger Mes voisins les Yamada [BLURAY 720p] French

BLURAY 720p | MULTiLANGUES

Mes voisins les Yamada

Mes voisins les Yamada

Mes voisins les Yamada

Origine du film : Japonais
Réalisateur : Isao Takahata
Acteurs : Tôru Masuoka, Yukiji Asaoka, Naomi Uno
Genre : Animation, Comédie
Durée : 1h44min
Date de sortie : 4 avril 2001
Année de production : 1999
Titre Original : Hohokekyo tonari no Yamada-kun
Distribué par : Océan Films
Note presse : Mes voisins les Yamada 4,2/5
Note spectateurs : Mes voisins les Yamada

; »>3,5/5 (504)
Bande annonce :

fd85b1ff32c8a4a6513e1957baff4903

18653108″>Cliquez-ici pour voir la bande annonce fd85b1ff32c8a4a6513e1957baff4903″> 18653108

fd85b1ff32c8a4a6513e1957baff4903

Mes voisins les Yamada

Nonoko Yamada, une petite fille espiègle au franc parler, nous présente chaque membre de sa famille peu ordinaire :Son père, Takashi Yamada, homme d'affaires un peu bougon ; sa mère, Matsuko, au naturel spontané, un peu fainéante, vite démoralisée par les tâches ménagères et autres travaux domestiques. Quant à Naboru, son grand frère, il déteste étudier. Et enfin Shige, sa grand-mère, une septuagénaire bien bavarde qui ne rate pas une occasion de donner son avis sur tout et de s'amuser des querelles du couple.
60702″ style= »display:inline; »>

Mes voisins les Yamada

Qualité : BLURAY 720p
Format : MKV
Langue : Multilangage
Sous-titre : Français
Découpé avec : Winrar
Nombre de fichiers : 5 Fichiers
Taille des fichiers : 1000 Mo + 630 Mo

Mes voisins les Yamada

Mes.Voisins.Les.Yamada.1999.MULTi.720p.BluRay.DTS.AC3.x264-PULSE ( 4630 Mo)

[Liens Interchangeables]

Uptobox
Télécharger

Uploaded
Télécharger

TurboBit
Télécharger

Rapidgator
Télécharger

Uplea
Télécharger

1fichier
Télécharger

[Un Lien Premium]

Uptobox
Télécharger

Uploaded
Télécharger

TurboBit
Télécharger

Rapidgator
Télécharger

Uplea
Télécharger

1fichier
Télécharger

NFO :

Afficher / Masquer le texte 555e95b0d89108caec181b1b622049c6″ class= »text_spoiler » style= »display:none; »>General
Unique ID : 230122817795319511466151165158647970260 (0xAD200AE5BA792BCC9328A9E19C08B9D4)
Complete name : Mes voisins les Yamada 1999 Bluray 720P Multi DTS AC3 x264-PULSE.mkv
Format : Matroska
Format version : Version 2
File size : 4.63 GiB
Duration : 1h 43mn
Overall bit rate : 6 398 Kbps
Movie name : Mes voisins les Yamada 1999 Bluray 720P Multi DTS AC3 x264- PULSE
Encoded date : UTC 2012-05-30 11:03:08
Writing application : mkvmerge v5.0.1 (‘Es ist Sommer’) built on Oct 9 2011 11:55:43
Writing library : libebml v1.2.2 + libmatroska v1.3.0

Video
ID : 1
Format : AVC
Format/Info : Advanced Video Codec
Format profile : [email protected]
Format settings, CABAC : Yes
Format settings, ReFrames : 9 frames
Muxing mode : Header stripping
Codec ID : V_MPEG4/ISO/AVC
Duration : 1h 43mn
Bit rate : 4 250 Kbps
Width : 1 280 pixels
Height : 720 pixels
Display aspect ratio : 16:9
Frame rate : 23.976 fps
Color space : YUV
Chroma subsampling : 4:2:0
Bit depth : 8 bits
Scan type : Progressive
Bits/(Pixel*Frame) : 0.192
Stream size : 2.98 GiB (64%)
Title : Mes voisins les Yamada 1999 Bluray 720P Multi DTS AC3 x264- PULSE
Writing library : x264 core 122 r2184 5c85e0a
Encoding settings : cabac=1 / ref=9 / deblock=1:-3:-3 / analyse=0x3:0x113 / me=umh / subme=11 / psy=1 / psy_rd=1.00:0.00 / mixed_ref=1 / me_range=128 / chroma_me=1 / trellis=2 / 8x8dct=1 / cqm=0 / deadzone=6,6 / fast_pskip=0 / chroma_qp_offset=-2 / threads=12 / sliced_threads=0 / nr=0 / decimate=0 / interlaced=0 / bluray_compat=0 / constrained_intra=0 / bframes=5 / b_pyramid=2 / b_adapt=2 / b_bias=0 / direct=3 / weightb=1 / open_gop=1 / weightp=2 / keyint=250 / keyint_min=23 / scenecut=40 / intra_refresh=0 / rc_lookahead=250 / rc=2pass / mbtree=1 / bitrate=4250 / ratetol=1.0 / qcomp=0.60 / qpmin=0 / qpmax=69 / qpstep=4 / cplxblur=20.0 / qblur=0.5 / vbv_maxrate=50000 / vbv_bufsize=50000 / nal_hrd=none / ip_ratio=1.40 / aq=2:1.00
Language : Japanese
Default : Yes
Forced : Yes
Color primaries : BT.709-5, BT.1361, IEC 61966-2-4, SMPTE RP177
Transfer characteristics : BT.709-5, BT.1361
Matrix coefficients : BT.709-5, BT.1361, IEC 61966-2-4 709, SMPTE RP177

Audio #1
ID : 2
Format : AC-3
Format/Info : Audio Coding 3
Mode extension : CM (complete main)
Muxing mode : Header stripping
Codec ID : A_AC3
Duration : 1h 43mn
Bit rate mode : Constant
Bit rate : 640 Kbps
Channel(s) : 6 channels
Channel positions : Front: L C R, Side: L R, LFE
Sampling rate : 48.0 KHz
Bit depth : 16 bits
Compression mode : Lossy
Stream size : 475 MiB (10%)
Title : Français AC3@ 448 Kbps
Language : French
Default : Yes
Forced : Yes

Audio #2
ID : 3
Format : DTS
Format/Info : Digital Theater Systems
Muxing mode : Header stripping
Codec ID : A_DTS
Duration : 1h 43mn
Bit rate mode : Constant
Bit rate : 1 510 Kbps
Channel(s) : 6 channels
Channel positions : Front: L C R, Side: L R, LFE
Sampling rate : 48.0 KHz
Bit depth : 24 bits
Compression mode : Lossy
Stream size : 1.09 GiB (24%)
Title : Japonais DTS@ 1510 Kbps
Language : Japanese
Default : No
Forced : No

Text #1
ID : 4
Format : UTF-8
Codec ID : S_TEXT/UTF8
Codec ID/Info : UTF-8 Plain Text
Title : Forcés Français
Language : French
Default : Yes
Forced : Yes

Text #2
ID : 5
Format : UTF-8
Codec ID : S_TEXT/UTF8
Codec ID/Info : UTF-8 Plain Text
Title : Complets Français
Language : French
Default : No
Forced : No

Menu
00:00:00.000 : en:00:00:00.000
00:00:13.013 : en:00:00:13.013
00:00:50.050 : en:00:00:50.050
00:01:33.218 : en:00:01:33.218
00:02:23.268 : en:00:02:23.268
00:03:06.770 : en:00:03:06.770
00:03:14.778 : en:00:03:14.778
00:04:47.704 : en:00:04:47.704
00:08:54.033 : en:00:08:54.033
00:09:37.911 : en:00:09:37.911
00:11:27.478 : en:00:11:27.478
00:11:50.501 : en:00:11:50.501
00:22:22.883 : en:00:22:22.883
00:22:40.150 : en:00:22:40.150
00:23:22.943 : en:00:23:22.943
00:24:00.981 : en:00:24:00.981
00:25:02.251 : en:00:25:02.251
00:25:37.786 : en:00:25:37.786
00:26:11.653 : en:00:26:11.653
00:26:40.557 : en:00:26:40.557
00:27:21.515 : en:00:27:21.515
00:27:53.672 : en:00:27:53.672
00:28:11.857 : en:00:28:11.857
00:28:49.519 : en:00:28:49.519
00:29:11.625 : en:00:29:11.625
00:30:08.390 : en:00:30:08.390
00:31:55.163 : en:00:31:55.163
00:32:42.752 : en:00:32:42.752
00:34:04.375 : en:00:34:04.375
00:34:54.425 : en:00:34:54.425
00:35:35.133 : en:00:35:35.133
00:36:32.023 : en:00:36:32.023
00:37:02.637 : en:00:37:02.637
00:37:24.158 : en:00:37:24.158
00:38:42.737 : en:00:38:42.737
00:41:21.020 : en:00:41:21.020
00:42:01.811 : en:00:42:01.811
00:42:32.842 : en:00:42:32.842
00:44:31.127 : en:00:44:31.127
00:45:07.830 : en:00:45:07.830
00:46:25.074 : en:00:46:25.074
00:47:02.403 : en:00:47:02.403
00:47:45.821 : en:00:47:45.821
00:48:06.800 : en:00:48:06.800
00:48:27.821 : en:00:48:27.821
00:49:05.609 : en:00:49:05.609
00:49:59.163 : en:00:49:59.163
00:50:42.247 : en:00:50:42.247
00:50:56.762 : en:00:50:56.762
00:52:19.970 : en:00:52:19.970
00:53:09.770 : en:00:53:09.770
00:53:50.685 : en:00:53:50.685
00:54:29.307 : en:00:54:29.307
00:56:32.472 : en:00:56:32.472
00:57:06.423 : en:00:57:06.423
00:58:15.033 : en:00:58:15.033
00:58:53.446 : en:00:58:53.446
00:59:39.534 : en:00:59:39.534
01:00:38.426 : en:01:00:38.426
01:01:06.746 : en:01:01:06.746
01:01:35.525 : en:01:01:35.525
01:02:21.654 : en:01:02:21.654
01:02:57.482 : en:01:02:57.482
01:03:35.645 : en:01:03:35.645
01:04:28.322 : en:01:04:28.322
01:06:50.715 : en:01:06:50.715
01:09:41.886 : en:01:09:41.886
01:10:04.784 : en:01:10:04.784
01:10:36.816 : en:01:10:36.816
01:11:11.600 : en:01:11:11.600
01:12:09.283 : en:01:12:09.283
01:13:23.232 : en:01:13:23.232
01:14:03.105 : en:01:14:03.105
01:21:45.275 : en:01:21:45.275
01:25:47.142 : en:01:25:47.142
01:26:13.293 : en:01:26:13.293
01:26:41.321 : en:01:26:41.321
01:27:14.938 : en:01:27:14.938
01:29:43.586 : en:01:29:43.586
01:30:37.140 : en:01:30:37.140
01:31:52.590 : en:01:31:52.590
01:35:10.705 : en:01:35:10.705
01:35:45.740 : en:01:35:45.740
01:36:51.972 : en:01:36:51.972
01:38:18.893 : en:01:38:18.893
01:38:45.878 : en:01:38:45.878