Telecharger Métal hurlant [DVDRiP] French

Qualité BDRiP mkv | MULTiLANGUES

Métal hurlant

Métal hurlant

Origine du film : Canadien
Réalisateur : Gerald Potterton
Acteurs : Rodger Bumpass, John Candy, Jackie Burroughs
Genre : Animation, Fantastique
Durée : 1h26min
Date de sortie : 2 novembre 1981
Année de production : 1981
Titre Original : Heavy metal
Note spectateurs : Métal hurlant

; »>3,6/5 (289)
Bande annonce :

09bdc53fd0d3ba9673b491ba2bc9e226

19448302″>Cliquez-ici pour voir la bande annonce 09bdc53fd0d3ba9673b491ba2bc9e226″> 19448302

09bdc53fd0d3ba9673b491ba2bc9e226

Métal hurlant

Suite à l’arrivée d’un mystérieux engin tout venu de l’espace, une lueur verte nommée le Loc-Nar répand son pouvoir maléfique sur toute la surface de la Terre. Mais qui aura donc le courage de la stopper ?
105358″ style= »display:inline; »>

Métal hurlant

Format : MKV

Métal hurlant

Métal Hurlant 1981 MULTI.BRRip.x264.AC3-HuSh

(1370 Mo)

Uptobox
Télécharger

Uploaded
Télécharger

TurboBit
Télécharger

Rapidgator
Télécharger

Uplea
Télécharger

1fichier
Télécharger

NFO :

Afficher / Masquer le texte 125deba45f3810b7664dd682d89bd07b » class= »text_spoiler » style= »display:none; »>■General

Unique ID : 190940403870029504055750872362114959084 (0x8FA5C8BD715D804F91EEE4D90E0146EC)

Complete name : H:Metal.Hurlant.1981.MULTI.BRRip.x264.AC3-HuSh.mkv

Format : Matroska

Format version : Version 2

File size : 1.34 GiB

Duration : 1h 30mn

Overall bit rate mode : Variable

Overall bit rate : 2 127 Kbps

Encoded date : UTC 2014-04-22 06:58:50

Writing application : mkvmerge v3.2.0 (‘Beginnings’) built on Feb 12 2010 16:46:17

Writing library : libebml v0.7.9 + libmatroska v0.8.1

Video

ID : 1

Format : AVC

Format/Info : Advanced Video Codec

Format profile : [email protected]

Format settings, CABAC : Yes

Format settings, ReFrames : 8 frames

Codec ID : V_MPEG4/ISO/AVC

Duration : 1h 30mn

Bit rate mode : Variable

Bit rate : 1 317 Kbps

Nominal bit rate : 1 398 Kbps

Maximum bit rate : 17.5 Mbps

Width : 720 pixels

Height : 384 pixels

Display aspect ratio : 1.85:1

Original display aspect rat : 1.85:1

Frame rate mode : Constant

Frame rate : 23.976 fps

Color space : YUV

Chroma subsampling : 4:2:0

Bit depth : 8 bits

Scan type : Progressive

Bits/(Pixel*Frame) : 0.199

Stream size : 851 MiB (62%)

Writing library : x264 core 140 r2345

Encoding settings : cabac=1 / ref=8 / deblock=1:-1:-1 / analyse=0x3:0x133 / me=umh / subme=9 / psy=1 / psy_rd=1.00:0.00 / mixed_ref=1 / me_range=32 / chroma_me=1 / trellis=2 / 8x8dct=1 / cqm=0 / deadzone=21,11 / fast_pskip=0 / chroma_qp_offset=-2 / threads=6 / lookahead_threads=1 / sliced_threads=0 / nr=0 / decimate=1 / interlaced=0 / bluray_compat=0 / constrained_intra=0 / bframes=3 / b_pyramid=0 / b_adapt=2 / b_bias=0 / direct=3 / weightb=1 / open_gop=0 / weightp=2 / keyint=230 / keyint_min=23 / scenecut=40 / intra_refresh=0 / rc_lookahead=60 / rc=2pass / mbtree=1 / bitrate=1398 / ratetol=1.0 / qcomp=0.60 / qpmin=10 / qpmax=69 / qpstep=4 / cplxblur=20.0 / qblur=0.5 / vbv_maxrate=17500 / vbv_bufsize=17500 / nal_hrd=vbr / filler=0 / ip_ratio=1.40 / aq=1:1.00

Language : English

Default : Yes

Forced : No

Audio #1

ID : 2

Format : AC-3

Format/Info : Audio Coding 3

Mode extension : CM (complete main)

Format settings, Endianness : Big

Codec ID : A_AC3

Duration : 1h 30mn

Bit rate mode : Constant

Bit rate : 384 Kbps

Channel(s) : 6 channels

Channel positions : Front: L C R, Side: L R, LFE

Sampling rate : 48.0 KHz

Compression mode : Lossy

Stream size : 248 MiB (18%)

Language : French

Default : Yes

Forced : No

Audio #2

ID : 3

Format : AC-3

Format/Info : Audio Coding 3

Mode extension : CM (complete main)

Format settings, Endianness : Big

Codec ID : A_AC3

Duration : 1h 30mn

Bit rate mode : Constant

Bit rate : 384 Kbps

Channel(s) : 6 channels

Channel positions : Front: L C R, Side: L R, LFE

Sampling rate : 48.0 KHz

Compression mode : Lossy

Stream size : 248 MiB (18%)

Language : English

Default : No

Forced : No

Text #1

ID : 4

Format : UTF-8

Codec ID : S_TEXT/UTF8

Codec ID/Info : UTF-8 Plain Text

Title : team-hush.org

Language : French

Default : Yes

Forced : No

Text #2

ID : 5

Format : UTF-8

Codec ID : S_TEXT/UTF8

Codec ID/Info : UTF-8 Plain Text

Language : French

Default : No

Forced : No