Telecharger Mindscape [BLURAY 720p] French

(TRUEFRENCH = Vraie voix française)

BLURAY 720p | TRUEFRENCH (VFI)

Mindscape

Mindscape

Mindscape

Origine du film : Américain, Espagnol, Français
Réalisateur : Jorge Dorado
Acteurs : Mark Strong, Taissa Farmiga, Brian Cox
Genre : Thriller, Drame
Durée : 1h38min
Année de production : 2013
Note spectateurs : Mindscape

; »>3,6/5 (242)
Bande annonce :

8475d4ae08d896a26c40dd7156925592

19539389″>Cliquez-ici pour voir la bande annonce 8475d4ae08d896a26c40dd7156925592″> 19539389

8475d4ae08d896a26c40dd7156925592

Mindscape

Un homme parvient à pénétrer dans l'esprit des gens grâce à des techniques d'hypnose particulières. Un jour, il est chargé de s'occuper du cas d'une adolescente douée d'une intelligence incroyable mais malheureusement très dangereuse pour elle-même et pour les autres. La jeune fille est-elle psychotique ou a-t-elle vécu un terrible traumatisme ?
57944″ style= »display:inline; »>

Mindscape

Qualité : BLURAY 720p
Format : MKV
Langue : Français
Découpé avec : Winrar
Nombre de fichiers : 4 Fichiers
Taille des fichiers : 1000 Mo + 721 Mo

Mindscape

[4 Liens Interchangeables : 3 x 1000 Mo + 1 x 721 Mo]

Mindscape 2013 FRENCH 720p BluRay AC3 x264-CNF30 ( 3721 Mo)

Uptobox
Télécharger

Uplea
Télécharger

1fichier
Télécharger

Uploaded
Télécharger

Rapidgator
Télécharger

TurboBit
Télécharger

[1 Lien PREMIUM : 1 x 3.63 GB]

Uptobox
Télécharger

Uplea
Télécharger

1fichier
Télécharger

Uploaded
Télécharger

Rapidgator
Télécharger

TurboBit
Télécharger

NFO :

Afficher / Masquer le texte 47bf5a2378e5e6da3a6cd363b0b72ca5″ class= »text_spoiler » style= »display:none; »>Format : Matroska
Format version : Version 4 / Version 2
File size : 3.63 GiB
Duration : 1h 38mn
Overall bit rate : 5 260 Kbps
Encoded date : UTC 2014-09-01 01:19:17
Writing application : mkvmerge v6.7.0 (‘Back to the Ground’) 64bit built on Jan 8 2014 15:10:52
Writing library : libebml v1.3.0 + libmatroska v1.4.1

Video
ID : 1
Format : AVC
Format/Info : Advanced Video Codec
Format profile : [email protected]
Format settings, CABAC : Yes
Format settings, ReFrames : 5 frames
Codec ID : V_MPEG4/ISO/AVC
Duration : 1h 38mn
Bit rate : 4 816 Kbps
Width : 1 280 pixels
Height : 536 pixels
Display aspect ratio : 2.40:1
Frame rate : 23.976 fps
Color space : YUV
Chroma subsampling : 4:2:0
Bit depth : 8 bits
Scan type : Progressive
Bits/(Pixel*Frame) : 0.293
Stream size : 3.25 GiB (89%)
Writing library : x264 core 142 r2431 ac76440
Encoding settings : cabac=1 / ref=5 / deblock=1:0:0 / analyse=0x3:0x133 / me=umh / subme=7 / psy=1 / psy_rd=1.00:0.00 / mixed_ref=1 / me_range=16 / chroma_me=1 / trellis=1 / 8x8dct=1 / cqm=0 / deadzone=21,11 / fast_pskip=0 / chroma_qp_offset=-2 / threads=12 / lookahead_threads=2 / sliced_threads=0 / nr=0 / decimate=1 / interlaced=0 / bluray_compat=0 / constrained_intra=0 / bframes=3 / b_pyramid=2 / b_adapt=1 / b_bias=0 / direct=1 / weightb=1 / open_gop=0 / weightp=2 / keyint=250 / keyint_min=23 / scenecut=40 / intra_refresh=0 / rc_lookahead=40 / rc=2pass / mbtree=1 / bitrate=4816 / ratetol=1.0 / qcomp=0.60 / qpmin=0 / qpmax=69 / qpstep=4 / cplxblur=20.0 / qblur=0.5 / ip_ratio=1.40 / aq=1:1.00
Language : English
Default : Yes
Forced : No

Audio
ID : 2
Format : AC-3
Format/Info : Audio Coding 3
Mode extension : CM (complete main)
Format settings, Endianness : Big
Codec ID : A_AC3
Duration : 1h 38mn
Bit rate mode : Constant
Bit rate : 448 Kbps
Channel(s) : 6 channels
Channel positions : Front: L C R, Side: L R, LFE
Sampling rate : 48.0 KHz
Bit depth : 16 bits
Compression mode : Lossy
Delay relative to video : 12s 0ms
Stream size : 317 MiB (9%)
Title : French VFI
Language : French
Default : Yes
Forced : No