Telecharger Miraculum [BLURAY 720p] French

BLURAY 720p | FRENCH | DTS

Miraculum

Miraculum

Miraculum

Origine du film : Canadien, Québecois
Réalisateur : Daniel Grou
Acteurs : Xavier Dolan, Claude Legault, Julien Poulin
Genre : Divers
Année de production : 2013
Note spectateurs : Miraculum 3/5 (2)
Bande annonce :

5d0ec56a556191b32890b83c5bd6c786

19547521″>Cliquez-ici pour voir la bande annonce 5d0ec56a556191b32890b83c5bd6c786″> 19547521

5d0ec56a556191b32890b83c5bd6c786

Miraculum

Simon rentre au pays après plusieurs années passées à l'étranger. Il transporte de la drogue afin de réparer une erreur commise il y a longtemps, mais il souhaite quitter le pays le plus tôt possible. Raymond veut emmener sa maîtresse Louise en voyage mais, à soixante ans, cette dernière ne veut pas quitter son mari. Martin ment à sa conjointe Evelyne à la veille de leur départ pour des vacances et passe sa journée au casino. Étienne, qui est Témoin de Jéhovah, est gravement malade mais refuse toute transfusion. Sa fiancée Julie, infirmière, est confrontée à un dilemme lorsqu'un passager gravement brûlé est admis à l'hôpital après un écrasement d'avion.
68899″ style= »display:inline; »>

Miraculum

Qualité : BLURAY 720p
Format : MKV
Langue : Français
Sous-titre : Anglais
Nombre de fichiers : 5 Fichiers
Taille des fichiers : 1000 Mo + 479 Mo

Miraculum

Ps: Les liens sont interchangeables, prenez une partie de chaque hébergeur pour télécharger plusieurs fichiers en même temps.

Miraculum.2014.720p.BluRay.x264-RedBlade ( 4479 Mo)

Uptobox
Télécharger

Uplea
Télécharger

1fichier
Télécharger

Free
Télécharger

Uploaded
Télécharger

Rapidgator
Télécharger

TurboBit
Télécharger

1 Lien Premium – 4.4 Go

Uptobox Premium
Télécharger

1fichier Premium
Télécharger

Uploaded Premium
Télécharger

TurboBit Premium
Télécharger

NFO :

Afficher / Masquer le texte 806de6176b199dc641dbcf5a3ce5af19″ class= »text_spoiler » style= »display:none; »>Format : Matroska
Format version : Version 2
File size : 4.37 GiB
Duration : 1h 49mn
Overall bit rate : 5 716 Kbps
Encoded date : UTC 2014-06-13 18:15:52
Writing application : mkvmerge v6.5.0 (‘Isn’t she lovely’) built on Oct 20 2013 12:50:05
Writing library : libebml v1.3.0 + libmatroska v1.4.1

Video
ID : 1
Format : AVC
Format/Info : Advanced Video Codec
Format profile : [email protected]
Format settings, CABAC : Yes
Format settings, ReFrames : 5 frames
Codec ID : V_MPEG4/ISO/AVC
Duration : 1h 49mn
Bit rate : 4 205 Kbps
Width : 1 280 pixels
Height : 544 pixels
Display aspect ratio : 2.35:1
Frame rate mode : Constant
Frame rate : 23.976 fps
Color space : YUV
Chroma subsampling : 4:2:0
Bit depth : 8 bits
Scan type : Progressive
Bits/(Pixel*Frame) : 0.252
Stream size : 3.13 GiB (72%)
Writing library : x264 core 142 r2409 d6b4e63
Encoding settings : cabac=1 / ref=5 / deblock=1:0:0 / analyse=0x3:0x2 / me=umh / subme=7 / psy=1 / psy_rd=1.00:0.00 / mixed_ref=1 / me_range=16 / chroma_me=1 / trellis=1 / 8x8dct=1 / cqm=0 / deadzone=21,11 / fast_pskip=1 / chroma_qp_offset=-2 / threads=12 / lookahead_threads=2 / sliced_threads=0 / nr=0 / decimate=1 / interlaced=0 / bluray_compat=0 / constrained_intra=0 / bframes=3 / b_pyramid=2 / b_adapt=1 / b_bias=0 / direct=1 / weightb=0 / open_gop=0 / weightp=2 / keyint=240 / keyint_min=23 / scenecut=40 / intra_refresh=0 / rc=2pass / mbtree=0 / bitrate=4205 / ratetol=1.0 / qcomp=0.60 / qpmin=10 / qpmax=51 / qpstep=4 / cplxblur=20.0 / qblur=0.5 / ip_ratio=1.40 / pb_ratio=1.30 / aq=1:1.00
Language : English
Default : Yes
Forced : No

Audio
ID : 2
Format : DTS
Format/Info : Digital Theater Systems
Mode : 16
Format settings, Endianness : Big
Codec ID : A_DTS
Duration : 1h 49mn
Bit rate mode : Constant
Bit rate : 1 509 Kbps
Channel(s) : 6 channels
Channel positions : Front: L C R, Side: L R, LFE
Sampling rate : 48.0 KHz
Bit depth : 24 bits
Compression mode : Lossy
Stream size : 1.15 GiB (26%)
Language : French
Default : Yes
Forced : No

Text
ID : 3
Format : UTF-8
Codec ID : S_TEXT/UTF8
Codec ID/Info : UTF-8 Plain Text
Language : English
Default : Yes
Forced : Yes

Jeux Gratuit
15354131_1854970838071206_1069261547_o.png