Telecharger Mise à l'épreuve 2[BLURAY 720p]

(TRUEFRENCH = Vraie voix française)

Qualité BLURAY 720p | MULTiLANGUES (Avec TRUEFRENCH) | son DTS

Origine du film : Américain
Réalisateur : Tim Story
Acteurs : Ice Cube, Kevin Hart, Tika Sumpter
Genre : Comédie, Action
Durée : 1h 42min
Date de sortie : 30 mars 2016
Année de production : 2016
Titre Original : Ride Along 2
Distribué par : Universal Pictures International France
Note presse : 1,3/5
Note spectateurs :
3,3/5 (243)

Alors que son mariage approche, Ben se rend à Miami avec son futur beau-frère James pour faire tomber un trafiquant de drogue.
news-id-135670″ style= »display:inline; »>

Format : x264
Sous-titres : Forcé pour les passages en langue étrangère.

Ride.Along.2.2016.MULTi.720p.BluRay.DTS.x264-KLI

(6118 Mo)

[Liens Interchangeables entre hébergeurs: 6x 1000 Mo + 1x 118 Mo]

Uptobox
Télécharger

Uplea
Télécharger

1fichier
Télécharger

Uploaded
Télécharger

Rapidgator
Télécharger

TurboBit
Télécharger

1 Lien Premium – 6 Go

Uptobox Premium
Télécharger

Uplea Premium
Télécharger

1fichier Premium
Télécharger

Uploaded Premium
Télécharger

TurboBit Premium
Télécharger

NFO :

3ec9a54c681d8aae534589ee58e2d869″ class= »text_spoiler » style= »display:none; »>

General
Unique ID : 314456198564274974719188015236651275986 (0xEC920F973A7579AAFE5D6367A991D6D2)
Complete name : Ride.Along.2.2016.MULTi.720p.BluRay.DTS.x264-KLI.mkv
Format : Matroska
Format version : Version 4 / Version 2
File size : 5.97 GiB
Duration : 1h 41mn
Overall bit rate : 8 428 Kbps
Movie name : Ride Along 2 2016 MULTi 720p BluRay DTS Encode By [email protected]
Encoded date : UTC 2016-05-24 19:38:57
Writing application : mkvmerge v7.8.0 ('River Man') 64bit built on Mar 28 2015 07:20:28
Writing library : libebml v1.3.1 + libmatroska v1.4.2

Video
ID : 1
Format : AVC
Format/Info : Advanced Video Codec
Format profile : [email protected]
Format settings, CABAC : Yes
Format settings, ReFrames : 12 frames
Codec ID : V_MPEG4/ISO/AVC
Duration : 1h 41mn
Bit rate : 6 115 Kbps
Width : 1 280 pixels
Height : 534 pixels
Display aspect ratio : 2.40:1
Frame rate mode : Constant
Frame rate : 23.976 fps
Color space : YUV
Chroma subsampling : 4:2:0
Bit depth : 8 bits
Scan type : Progressive
Bits/(Pixel*Frame) : 0.373
Stream size : 4.24 GiB (71%)
Title : Ride Along 2 2016 MULTi 720p BluRay DTS Encode By [email protected]
Writing library : x264 core 146
Encoding settings : cabac=1 / ref=12 / deblock=1:-3:-3 / analyse=0x3:0x133 / me=umh / subme=10 / psy=1 / psy_rd=1,00:0,20 / mixed_ref=1 / me_range=64 / chroma_me=1 / trellis=2 / 8x8dct=1 / cqm=0 / deadzone=21,11 / fast_pskip=0 / chroma_qp_offset=-3 / threads=16 / lookahead_threads=2 / sliced_threads=0 / nr=0 / decimate=1 / interlaced=0 / bluray_compat=0 / constrained_intra=0 / bframes=8 / b_pyramid=2 / b_adapt=2 / b_bias=0 / direct=3 / weightb=1 / open_gop=0 / weightp=2 / keyint=240 / keyint_min=24 / scenecut=40 / intra_refresh=0 / rc_lookahead=240 / rc=2pass / mbtree=1 / bitrate=6115 / ratetol=1,0 / qcomp=0,60 / qpmin=0 / qpmax=69 / qpstep=4 / cplxblur=20,0 / qblur=0,5 / vbv_maxrate=50000 / vbv_bufsize=55000 / nal_hrd=none / filler=0 / ip_ratio=1,40 / aq=2:1,00
Language : English
Default : Yes
Forced : No
Color range : Limited
Color primaries : BT.709
Transfer characteristics : BT.709
Matrix coefficients : BT.709

Audio #1
ID : 2
Format : DTS
Format/Info : Digital Theater Systems
Mode : 16
Format settings, Endianness : Big
Codec ID : A_DTS
Duration : 1h 41mn
Bit rate mode : Constant
Bit rate : 1 509 Kbps
Channel(s) : 6 channels
Channel positions : Front: L C R, Side: L R, LFE
Sampling rate : 48.0 KHz
Bit depth : 24 bits
Compression mode : Lossy
Stream size : 1.07 GiB (18%)
Title : DTS VO 5.1
Language : English
Default : No
Forced : No

Audio #2
ID : 3
Format : DTS
Format/Info : Digital Theater Systems
Mode : 16
Format settings, Endianness : Big
Codec ID : A_DTS
Duration : 1h 41mn
Bit rate mode : Constant
Bit rate : 768 Kbps
Channel(s) : 6 channels
Channel positions : Front: L C R, Side: L R, LFE
Sampling rate : 48.0 KHz
Bit depth : 24 bits
Compression mode : Lossy
Stream size : 558 MiB (9%)
Title : DTS VFF 5.1
Language : French
Default : Yes
Forced : No

Text #1
ID : 4
Format : UTF-8
Codec ID : S_TEXT/UTF8
Codec ID/Info : UTF-8 Plain Text
Title : SRT Full
Language : French
Default : No
Forced : No

Text #2
ID : 5
Format : UTF-8
Codec ID : S_TEXT/UTF8
Codec ID/Info : UTF-8 Plain Text
Title : SRT Forced
Language : French
Default : Yes
Forced : No

Text #3
ID : 6
Format : PGS
Muxing mode : zlib
Codec ID : S_HDMV/PGS
Codec ID/Info : Picture based subtitle format used on BDs/HD-DVDs
Title : PGS SDH Full
Language : English
Default : No
Forced : No

Text #4
ID : 7
Format : PGS
Muxing mode : zlib
Codec ID : S_HDMV/PGS
Codec ID/Info : Picture based subtitle format used on BDs/HD-DVDs
Title : PGS Full
Language : French
Default : No
Forced : No

Text #5
ID : 8
Format : PGS
Muxing mode : zlib
Codec ID : S_HDMV/PGS
Codec ID/Info : Picture based subtitle format used on BDs/HD-DVDs
Title : PGS Forced
Language : French
Default : No
Forced : No

Menu
00:00:00.000 : :Chapter 1
00:03:29.501 : :Chapter 2
00:10:26.834 : :Chapter 3
00:14:00.214 : :Chapter 4
00:17:21.165 : :Chapter 5
00:22:33.310 : :Chapter 6
00:27:48.917 : :Chapter 7
00:34:33.571 : :Chapter 8
00:39:25.947 : :Chapter 9
00:42:26.043 : :Chapter 10
00:46:06.055 : :Chapter 11
00:50:51.214 : :Chapter 12
00:56:39.771 : :Chapter 13
01:00:04.767 : :Chapter 14
01:06:57.722 : :Chapter 15
01:13:09.093 : :Chapter 16
01:19:35.437 : :Chapter 17
01:23:06.773 : :Chapter 18
01:31:19.182 : :Chapter 19
01:36:58.854 : :Chapter 20

Jeux Gratuit
15354131_1854970838071206_1069261547_o.png