Telecharger Miss Détective [BLURAY 720p] French

(TRUEFRENCH = Vraie voix française)

Qualité BLURAY 720p | TRUEFRENCH

Miss Détective

Miss Détective

Origine du film : Australien, Américain
Réalisateur : Donald Petrie
Acteurs : Sandra Bullock, Michael Caine, Heather Burns
Genre : Comédie, Action
Durée : 1h49min
Date de sortie : 4 avril 2001
Année de production : 2000
Titre Original : Miss Congeniality
Distribué par : Warner Bros. France
Note presse : Miss Détective 2,8/5
Note spectateurs : Miss Détective

; »>2,2/5 (2 661)
Bande annonce :

a23fb278a059f943e4e4978dbcd81736

19424347″>Cliquez-ici pour voir la bande annonce a23fb278a059f943e4e4978dbcd81736″> 19424347

a23fb278a059f943e4e4978dbcd81736

Miss Détective

L’agent Gracie Hart travaille dans un commando d’élite du FBI. Véritable garçon manqué, elle ne possède pas une seule robe, ne sait pas se maquiller, ne tient pas plus de cinq secondes sur des talons aiguilles, aime se bagarrer et boire un verre avec ses « potes ».
Mignonne comme elle est, elle pourrait participer à des concours de beauté, si seulement elle avait une once de féminité. Et c’est justement ce que le Bureau recherche en ce moment : un agent pour inflitrer le concours de Miss USA. Un terroriste, dénommé « Le Citoyen », menace en effet de faire exploser une bombe le jour du palmarès, et le FBI se doit de le neutraliser au plus tôt.
La seule personne pouvant accomplir une telle mission n’est autre que Gracie. De toute urgence, Victor Melling, relooker, est engagé par la police fédérale pour transformer la belle en Miss New Jersey. Un défi à toute épreuve, puisque Gracie refuse de se comporter comme un mannequin, de surveiller son alimentation et sa tenue vestimentaire.
99831″ style= »display:inline; »>

Miss Détective

Format : MKV
Découpé avec : Winrar

Miss Détective

Miss.Congeniality.2000.TRUEFRENCH.720p.BluRay.x264.AC3-R1

(4449 Mo)

[Liens Interchangeables entre hébergeurs: 4x 1000 Mo + 1x 449 Mo]

Uptobox
Télécharger

Uplea
Télécharger

1fichier
Télécharger

Uploaded
Télécharger

Rapidgator
Télécharger

TurboBit
Télécharger

[ Liens Premium ]

Uptobox
Télécharger

Uplea
Télécharger

1fichier
Télécharger

Uploaded
Télécharger

TurboBit
Télécharger

NFO :

Afficher / Masquer le texte d27c824f1792c153b888c6120801dcae » class= »text_spoiler » style= »display:none; »>Miss.Congeniality.2000.TRUEFRENCH.720p.BluRay.x264.AC3-R1.mkv
Format : Matroska
Format version : Version 2
File size : 4.35 GiB
Duration : 1h 50mn
Overall bit rate : 5 643 Kbps
Movie name : Miss.Congeniality.2000.TRUEFRENCH.720p.BluRay.x264.AC3-R1
Encoded date : UTC 2015-10-01 19:30:39
Writing application : mkvmerge v5.6.0 (‘Kenya Kane’) built on May 28 2012 06:47:39
Writing library : libebml v1.2.2 + libmatroska v1.3.0

Video
ID : 1
Format : AVC
Format/Info : Advanced Video Codec
Format profile : [email protected]
Format settings, CABAC : Yes
Format settings, ReFrames : 9 frames
Muxing mode : Header stripping
Codec ID : V_MPEG4/ISO/AVC
Duration : 1h 50mn
Bit rate : 4 890 Kbps
Width : 1 280 pixels
Height : 720 pixels
Display aspect ratio : 16:9
Frame rate mode : Constant
Frame rate : 23.976 fps
Color space : YUV
Chroma subsampling : 4:2:0
Bit depth : 8 bits
Scan type : Progressive
Bits/(Pixel*Frame) : 0.221
Stream size : 3.77 GiB (87%)
Writing library : x264 core 132
Encoding settings : cabac=1 / ref=9 / deblock=1:-1:-1 / analyse=0x3:0x133 / me=umh / subme=10 / psy=1 / psy_rd=1,00:10,00 / mixed_ref=1 / me_range=24 / chroma_me=1 / trellis=2 / 8x8dct=1 / cqm=0 / deadzone=21,11 / fast_pskip=1 / chroma_qp_offset=-4 / threads=18 / lookahead_threads=2 / sliced_threads=0 / nr=0 / decimate=1 / interlaced=0 / bluray_compat=0 / constrained_intra=0 / bframes=6 / b_pyramid=2 / b_adapt=2 / b_bias=0 / direct=3 / weightb=1 / open_gop=0 / weightp=2 / keyint=240 / keyint_min=24 / scenecut=40 / intra_refresh=0 / rc_lookahead=60 / rc=crf / mbtree=1 / crf=19,0 / qcomp=0,60 / qpmin=3 / qpmax=69 / qpstep=4 / ip_ratio=1,40 / aq=1:1,00
Language : English
Default : Yes
Forced : No
Color primaries : BT.709
Transfer characteristics : BT.709
Matrix coefficients : BT.709

Audio
ID : 2
Format : AC-3
Format/Info : Audio Coding 3
Mode extension : CM (complete main)
Format settings, Endianness : Big
Muxing mode : Header stripping
Codec ID : A_AC3
Duration : 1h 50mn
Bit rate mode : Constant
Bit rate : 640 Kbps
Channel(s) : 6 channels
Channel positions : Front: L C R, Side: L R, LFE
Sampling rate : 48.0 KHz
Bit depth : 16 bits
Compression mode : Lossy
Stream size : 505 MiB (11%)
Default : Yes
Forced : No

Jeux Gratuit
15354131_1854970838071206_1069261547_o.png