Telecharger Mission to Mars [BLURAY 720p] French

(TRUEFRENCH = Vraie voix française)

Qualité BLURAY 720p | MULTiLANGUES (Avec TRUEFRENCH) | son DTS

Mission to Mars

Mission to Mars

Origine du film : Américain
Réalisateur : Brian De Palma
Acteurs : Gary Sinise, Tim Robbins, Don Cheadle
Genre : Science fiction, Aventure, Drame
Durée : 1h53min
Date de sortie : 12 mai 2000
Année de production : 2000
Distribué par : Pathé Distribution
Note presse : Mission to Mars 2,7/5
Note spectateurs : Mission to Mars

; »>2,3/5 (4 271)
Bande annonce :

19987e621a5e3f19de19059810fc09a6

18651178″>Cliquez-ici pour voir la bande annonce 19987e621a5e3f19de19059810fc09a6″> 18651178

19987e621a5e3f19de19059810fc09a6

Mission to Mars

2020. La NASA envoie pour la première fois une équipe d’astronautes sur Mars. Mais peu de temps après leur arrivée, ils sont confrontés à un phénomène surnaturel d’une puissance terrifiante et toutes les communications sont coupées. Une deuxième mission est envoyée à leur recherche…
99700″ style= »display:inline; »>

Mission to Mars

Format : MKV
Découpé avec : Winrar

Mission to Mars

Mission to Mars 2000 MULTi TRUEFRENCH DTS 720p BluRay x264-STEAL

(6651 Mo)

[Liens Interchangeables entre hébergeurs: 6x 1000 Mo + 1x 651 Mo]

Uptobox
Télécharger

Uplea
Télécharger

1fichier
Télécharger

Uploaded
Télécharger

Rapidgator
Télécharger

TurboBit
Télécharger

[ Liens Premium ]

Uptobox
Télécharger

Uplea
Télécharger

1fichier
Télécharger

Uploaded
Télécharger

TurboBit
Télécharger

NFO :

Afficher / Masquer le texte 187ca6badb6da284df820b8f1250bdaf » class= »text_spoiler » style= »display:none; »>Mission to Mars 2000 MULTi TRUEFRENCH DTS 720p BluRay x264-STEAL.zone-telechargement.com.mkv
Format : Matroska
Format version : Version 4 / Version 2
File size : 6.50 GiB
Duration : 1h 53mn
Overall bit rate : 8 183 Kbps
Movie name : Mission to Mars 2000 High [email protected] Resolution 1280p/ 720p Frame rate 24 fps Release Blondin000
Encoded date : UTC 2013-06-02 07:21:36
Writing application : mkvmerge v6.0.0 (‘Coming Up For Air’) built on Jan 20 2013 09:52:00
Writing library : libebml v1.3.0 + libmatroska v1.4.0

Video
ID : 1
Format : AVC
Format/Info : Advanced Video Codec
Format profile : [email protected]
Format settings, CABAC : Yes
Format settings, ReFrames : 9 frames
Codec ID : V_MPEG4/ISO/AVC
Duration : 1h 53mn
Bit rate : 5 156 Kbps
Width : 1 280 pixels
Height : 720 pixels
Display aspect ratio : 16:9
Frame rate mode : Constant
Frame rate : 24.000 fps
Color space : YUV
Chroma subsampling : 4:2:0
Bit depth : 8 bits
Scan type : Progressive
Bits/(Pixel*Frame) : 0.233
Stream size : 3.97 GiB (61%)
Title : Mission to Mars 2000 High [email protected] Resolution 1280p/ 720p Frame rate 24 fps Release Blondin000
Writing library : x264 core 130 r2273 b3065e6
Encoding settings : cabac=1 / ref=9 / deblock=1:-3:-3 / analyse=0x3:0x113 / me=umh / subme=11 / psy=1 / psy_rd=0.92:0.18 / mixed_ref=1 / me_range=128 / chroma_me=1 / trellis=2 / 8x8dct=1 / cqm=0 / deadzone=21,11 / fast_pskip=0 / chroma_qp_offset=-2 / threads=24 / lookahead_threads=2 / sliced_threads=0 / nr=0 / decimate=1 / interlaced=0 / bluray_compat=0 / constrained_intra=0 / bframes=5 / b_pyramid=2 / b_adapt=2 / b_bias=0 / direct=1 / weightb=1 / open_gop=1 / weightp=2 / keyint=240 / keyint_min=23 / scenecut=40 / intra_refresh=0 / rc_lookahead=240 / rc=2pass / mbtree=1 / bitrate=5156 / ratetol=1.0 / qcomp=0.60 / qpmin=0 / qpmax=69 / qpstep=4 / cplxblur=20.0 / qblur=0.5 / vbv_maxrate=50000 / vbv_bufsize=50000 / nal_hrd=none / ip_ratio=1.40 / aq=2:1.00
Language : English
Default : Yes
Forced : No
Color primaries : BT.709
Transfer characteristics : BT.709
Matrix coefficients : BT.709

Audio #1
ID : 2
Format : DTS
Format/Info : Digital Theater Systems
Mode : 16
Format settings, Endianness : Big
Codec ID : A_DTS
Duration : 1h 53mn
Bit rate mode : Constant
Bit rate : 1 509 Kbps
Channel count : 6 channels
Channel positions : Front: L C R, Side: L R, LFE
Sampling rate : 48.0 KHz
Bit depth : 16 bits
Compression mode : Lossy
Stream size : 1.20 GiB (18%)
Title : VFF DTS 5.1_1510 kbps/ 16-bits 48khz
Language : French
Default : Yes
Forced : No

Audio #2
ID : 3
Format : DTS
Format/Info : Digital Theater Systems
Mode : 16
Format settings, Endianness : Big
Codec ID : A_DTS
Duration : 1h 53mn
Bit rate mode : Constant
Bit rate : 1 509 Kbps
Channel count : 6 channels
Channel positions : Front: L C R, Side: L R, LFE
Sampling rate : 48.0 KHz
Bit depth : 16 bits
Compression mode : Lossy
Stream size : 1.20 GiB (18%)
Title : VO DTS 5.1_1510 kbps/ 16-bits 48khz
Language : English
Default : No
Forced : No

Text #1
ID : 4
Format : PGS
Muxing mode : zlib
Codec ID : S_HDMV/PGS
Codec ID/Info : The same subtitle format used on BDs/HD-DVDs
Title : FR Complets Original Bluray
Language : French
Default : No
Forced : No

Text #2
ID : 5
Format : UTF-8
Codec ID : S_TEXT/UTF8
Codec ID/Info : UTF-8 Plain Text
Title : FR Complets srt
Language : French
Default : No
Forced : No

Menu
00:00:00.000 : en:Opening Credits/Barbeque
00:11:24.125 : en:Three Commanders, One Ship
00:13:43.375 : en:Cydonia, Mars
00:14:44.000 : en:Space Station
00:20:48.000 : en:Deadly Discovery
00:27:51.208 : en:Distress Call
00:33:02.875 : en:The Right Crew
00:35:29.958 : en:Rescue Mission
00:39:13.708 : en:Dance Lessons
00:48:25.541 : en:Signs From Mars
00:51:10.416 : en:The Mission Is a ‘Go’
01:01:48.708 : en:Maggie
01:12:51.541 : en:Meteoroids
01:19:08.166 : en:Falling
01:22:36.708 : en:Desperate Maneuver
01:29:41.166 : en:Losing Woody

Jeux Gratuit
15354131_1854970838071206_1069261547_o.png