Telecharger Mon babysitter [BLURAY 720p] French

BLURAY 720p | MULTiLANGUES

Mon babysitter

Mon babysitter

Mon babysitter

Origine du film : Américain
Réalisateur : Bart Freundlich
Acteurs : Catherine Zeta-Jones, Justin Bartha, Andrew Cherry
Genre : Comédie, Romance
Durée : 01h34min
Date de sortie : 17 novembre 2010
Année de production : 2008
Titre Original : The Rebound
Distribué par : Rezo Films
Note spectateurs : Mon babysitter 3/5 (300 notes)
Bande annonce :

a7a545b8919511cb01f72ce691d24203

19151847″>Cliquez-ici pour voir la bande annonce a7a545b8919511cb01f72ce691d24203″> 19151847

a7a545b8919511cb01f72ce691d24203

Mon babysitter

Fraîchement séparée de son mari, Sandy débarque de sa banlieue tranquille avec ses deux enfants pour s’installer à Manhattan. Elle emménage dans un appartement juste au-dessus d’un café où elle rencontre Aram qu’elle convainc bien vite de quitter son job de serveur pour devenir la nounou de ses enfants. Rapidement, le courant passe avec ce jeune homme de vingt ans son cadet… 5455″ style= »display:inline; »>

Qualité : BLURAY 720p
Format : MKV
Langue : Multilangage
Sous-titre : Multi
Découpé avec : Winrar
Nombre de fichiers : 5 Fichiers
Taille des fichiers : 998 Mo 779 Mo
Taille totale : 4771 Mo

[Liens Interchangeables – 1Go]

Ps: Vous pouvez prendre une partie sur chaque hébergeur, pour télécharger plusieurs fichiers en même temps. smile

The.Rebound.MULTI.720p.BluRay.x264-LiberTeam (4,7 Go)

1fichier.com
Télécharger

Uptobox.com
Télécharger

Free
Télécharger

Uploaded.net
Télécharger

TurboBit.net
Télécharger

[ 1 lien Premium ]

Uptobox.com Premium
Télécharger

1fichier.com Premium
Télécharger

Uploaded.net Premium
Télécharger

Free Premium
Télécharger

BayFiles Premium
Télécharger

NFO :

Afficher / Masquer le texte 53804998ec5461323045b49eee8df285″ class= »text_spoiler » style= »display:none; »>General
Unique ID : 214219107779437557920362032441800426913 (0xA129197474D6371B955F348DF12E85A1)
Complete name : C:UsersDrizztDownloadsThe.Rebound.720p.BluRay.x264-LiberTeam.mkv
Format : Matroska
File size : 4.66 GiB
Duration : 1h 30mn
Overall bit rate : 7 344 Kbps
Encoded date : UTC 2011-06-25 21:30:59
Writing application : mkvmerge v3.4.0 ('Rapunzel') built on May 15 2010 09:38:20
Writing library : libebml v0.8.0 libmatroska v0.9.0

Video
ID : 1
Format : AVC
Format/Info : Advanced Video Codec
Format profile : [email protected]
Format settings, CABAC : Yes
Format settings, ReFrames : 5 frames
Codec ID : V_MPEG4/ISO/AVC
Duration : 1h 30mn
Bit rate : 5 385 Kbps
Width : 1 280 pixels
Height : 544 pixels
Display aspect ratio : 2.35:1
Frame rate : 25.000 fps
Color space : YUV
Chroma subsampling : 4:2:0
Bit depth : 8 bits
Scan type : Progressive
Bits/(Pixel*Frame) : 0.309
Stream size : 3.32 GiB (71%)
Writing library : x264 core 84 r1416 fcf70c2
Encoding settings : cabac=1 / ref=5 / deblock=1:0:0 / analyse=0x3:0x133 / me=umh / subme=9 / psy=1 / psy_rd=1.0:0.0 / mixed_ref=1 / me_range=16 / chroma_me=1 / trellis=1 / 8x8dct=1 / cqm=0 / deadzone=21,11 / fast_pskip=1 / chroma_qp_offset=-2 / threads=6 / sliced_threads=0 / nr=0 / decimate=1 / mbaff=0 / constrained_intra=0 / bframes=3 / b_pyramid=2 / b_adapt=2 / b_bias=0 / direct=3 / wpredb=1 / wpredp=2 / keyint=250 / keyint_min=25 / scenecut=40 / intra_refresh=0 / rc=2pass / mbtree=0 / bitrate=5385 / ratetol=1.0 / qcomp=0.60 / qpmin=10 / qpmax=51 / qpstep=4 / cplxblur=20.0 / qblur=0.5 / ip_ratio=1.40 / pb_ratio=1.30 / aq=1:1.00
Language : English

Audio #1
ID : 2
Format : DTS
Format/Info : Digital Theater Systems
Codec ID : A_DTS
Duration : 1h 30mn
Bit rate mode : Constant
Bit rate : 1 510 Kbps
Channel(s) : 6 channels
Channel positions : Front: L C R, Side: L R, LFE
Sampling rate : 48.0 KHz
Bit depth : 16 bits
Compression mode : Lossy
Stream size : 981 MiB (21%)
Language : English

Audio #2
ID : 3
Format : AC-3
Format/Info : Audio Coding 3
Mode extension : CM (complete main)
Codec ID : A_AC3
Duration : 1h 30mn
Bit rate mode : Constant
Bit rate : 448 Kbps
Channel(s) : 6 channels
Channel positions : Front: L C R, Side: L R, LFE
Sampling rate : 48.0 KHz
Bit depth : 16 bits
Compression mode : Lossy
Delay relative to video : 4ms
Stream size : 291 MiB (6%)
Language : French

Text #1
ID : 4
Format : UTF-8
Codec ID : S_TEXT/UTF8
Codec ID/Info : UTF-8 Plain Text
Language : English

Text #2
ID : 5
Format : UTF-8
Codec ID : S_TEXT/UTF8
Codec ID/Info : UTF-8 Plain Text
Language : French

Text #3
ID : 6
Format : UTF-8
Codec ID : S_TEXT/UTF8
Codec ID/Info : UTF-8 Plain Text
Language : French

Menu
00:00:00.000 : en:00:00:00.000
00:07:51.240 : en:00:07:51.240
00:17:41.680 : en:00:17:41.680
00:24:25.640 : en:00:24:25.640
00:32:39.760 : en:00:32:39.760
00:40:47.800 : en:00:40:47.800
00:48:32.960 : en:00:48:32.960
00:56:09.000 : en:00:56:09.000
01:03:58.600 : en:01:03:58.600
01:12:26.360 : en:01:12:26.360
01:20:28.760 : en:01:20:28.760
01:26:58.240 : en:01:26:58.240