Telecharger My Movie Project [BLURAY 720p] French

(TRUEFRENCH = Vraie voix française)

BLURAY 720p | TRUEFRENCH

My Movie Project

My Movie Project

My Movie Project

Origine du film : Américain
Réalisateur : Steven Brill, Peter Farrelly, Steve Carrplus
Acteurs : Elizabeth Banks, Kristen Bell, Halle Berry
Genre : Comédie
Durée : 1h 30min
Date de sortie : 19 juin 2013,
Année de production : 2013
Titre Original : Movie 43
Distribué par : Metropolitan FilmExport
Note presse : My Movie Project 2,0/5
Note spectateurs : My Movie Project 2/5 (825)
Bande annonce :

d17fbcf05426b3cbf5e36fff55f1c7a3

19431998″>Cliquez-ici pour voir la bande annonce d17fbcf05426b3cbf5e36fff55f1c7a3″> 19431998

d17fbcf05426b3cbf5e36fff55f1c7a3

My Movie Project

Un célèbre acteur d’Hollywood approche un grand studio de cinéma avec une idée de scénario qui, selon lui, a le potentiel de devenir le film le plus rentable au monde. Peter et Bobby Farrelly  ont décidé de s’atteler à une comédie dingue et bluffante réunissant le plus gros casting jamais rassemblé à ce jour… 37554″ style= »display:inline; »>

Qualité : BLURAY 720p
Format : MKV
Langue : Français
Sous-titre : Français
Découpé avec : Winrar
Nombre de fichiers : 5 Fichiers
Taille des fichiers : 1000 Mo 467 Mo

[5 Liens Interchangeables : 4 x 1000 Mo 1 x 467 Mo]

Movie.43.2013.FRENCH.720p.BluRay.x264-ZEST ( 4467 Mo)

1fichier
Télécharger

Uptobox
Télécharger

Free
Télécharger

Uploaded
Télécharger

Rapidgator
Télécharger

TurboBit
Télécharger

[1 Lien PREMIUM : 1 x 4.36 GB]

1fichier
Télécharger

Uptobox
Télécharger

Uploaded
Télécharger

TurboBit
Télécharger

NFO :

Afficher / Masquer le texte 12d5c912fd0b9e8553e9cfabbcdc1c08″ class= »text_spoiler » style= »display:none; »>Format : Matroska
Format version : Version 4 / Version 2
File size : 4.36 GiB
Duration : 1h 34mn
Overall bit rate : 6 605 Kbps
Encoded date : UTC 2013-10-29 20:26:55
Writing application : mkvmerge v6.5.0 ('Isn't she lovely') built on Oct 20 2013 12:50:05
Writing library : libebml v1.3.0 libmatroska v1.4.1

Video
ID : 1
Format : AVC
Format/Info : Advanced Video Codec
Format profile : [email protected]
Format settings, CABAC : Yes
Format settings, ReFrames : 5 frames
Codec ID : V_MPEG4/ISO/AVC
Duration : 1h 34mn
Bit rate : 5 120 Kbps
Width : 1 280 pixels
Height : 720 pixels
Display aspect ratio : 16:9
Frame rate : 23.976 fps
Color space : YUV
Chroma subsampling : 4:2:0
Bit depth : 8 bits
Scan type : Progressive
Bits/(Pixel*Frame) : 0.232
Stream size : 3.28 GiB (75%)
Title : ZEST – Movie 43 2013 – 720p
Writing library : x264 core 138 r2358 9e941d1
Encoding settings : cabac=1 / ref=5 / deblock=1:0:0 / analyse=0x3:0x133 / me=umh / subme=7 / psy=1 / psy_rd=1.00:0.00 / mixed_ref=1 / me_range=16 / chroma_me=1 / trellis=1 / 8x8dct=1 / cqm=0 / deadzone=21,11 / fast_pskip=0 / chroma_qp_offset=-2 / threads=6 / lookahead_threads=1 / sliced_threads=0 / nr=0 / decimate=1 / interlaced=0 / bluray_compat=0 / constrained_intra=0 / bframes=3 / b_pyramid=2 / b_adapt=1 / b_bias=0 / direct=1 / weightb=1 / open_gop=0 / weightp=2 / keyint=240 / keyint_min=23 / scenecut=40 / intra_refresh=0 / rc_lookahead=40 / rc=2pass / mbtree=1 / bitrate=5120 / ratetol=1.0 / qcomp=0.60 / qpmin=0 / qpmax=69 / qpstep=4 / cplxblur=20.0 / qblur=0.5 / ip_ratio=1.40 / aq=1:1.00
Default : Yes
Forced : No

Audio
ID : 2
Format : DTS
Format/Info : Digital Theater Systems
Codec ID : A_DTS
Duration : 1h 34mn
Bit rate mode : Constant
Bit rate : 1 510 Kbps
Channel(s) : 6 channels
Channel positions : Front: L C R, Side: L R, LFE
Sampling rate : 48.0 KHz
Bit depth : 24 bits
Compression mode : Lossy
Stream size : 1 021 MiB (23%)
Title : FR – DTS – 1509Kbps
Language : French
Default : Yes
Forced : No

Text #1
ID : 3
Format : UTF-8
Codec ID : S_TEXT/UTF8
Codec ID/Info : UTF-8 Plain Text
Title : FR Forced
Language : French
Default : No
Forced : No

Text #2
ID : 4
Format : UTF-8
Codec ID : S_TEXT/UTF8
Codec ID/Info : UTF-8 Plain Text
Title : FR subs
Language : French
Default : No
Forced : No

Jeux Gratuit
15354131_1854970838071206_1069261547_o.png