Telecharger Narcopolis [BLURAY 720p] French

(TRUEFRENCH = Vraie voix française)

Qualité BLURAY 720p | TRUEFRENCH | son DTS

Narcopolis

Narcopolis

Narcopolis

Origine du film : Britannique
Réalisateur : Justin Trefgarne
Acteurs : Elliot Cowan, Elodie Yung, Jonathan Pryce
Genre : Science fiction, Thriller
Durée : 1h36min
Année de production : 2014
Note spectateurs : Narcopolis

; »>3/5 (6)

Narcopolis

Dans un futur proche, Frank Grieves est un nouveau genre d’agent de police travaillant dans une ville où toutes les drogues récréatives sont légales. Lorsqu’il prend en charge une affaire de corps non identifié, il découvre que la légalisation a un prix.
99059″ style= »display:inline; »>

Narcopolis

Format : MKV

Narcopolis

Narcopolis.2015.FRENCH.720p.BluRay.x264.DTS-KiKi

(4675 Mo)

[Liens Interchangeables entre hébergeurs: 4x 1000 Mo + 1x 675 Mo]

Uptobox
Télécharger

Uplea
Télécharger

1fichier
Télécharger

Uploaded
Télécharger

Rapidgator
Télécharger

TurboBit
Télécharger

1 Lien Premium – 4.6 Go

Uptobox Premium
Télécharger

Uplea Premium
Télécharger

1fichier Premium
Télécharger

Uploaded Premium
Télécharger

TurboBit Premium
Télécharger

NFO :

Afficher / Masquer le texte c86167586de94bcecb179b6185619dd9″ class= »text_spoiler » style= »display:none; »>General
Unique ID : 248343429730747738921528973039456670162 (0xBAD5346C8787B30CAF72F573DB96D1D2)
Complete name : Narcopolis.2015.FRENCH.720p.BluRay.x264.DTS-KiKi.mkv
Format : Matroska
Format version : Version 4 / Version 2
File size : 4.57 GiB
Duration : 1h 35mn
Overall bit rate : 6 828 Kbps
Movie name : RARBG.COM – Narcopolis.2015.720p.BluRay.x264.DTS-RARBG
Encoded date : UTC 2015-09-29 12:10:52
Writing application : mkvmerge v8.3.0 (‘Over the Horizon’) 64bit
Writing library : libebml v1.3.1 + libmatroska v1.4.2
DURATION : 01:29:29.781000000
NUMBER_OF_FRAMES : 12
NUMBER_OF_BYTES : 492
_STATISTICS_WRITING_APP : mkvmerge v8.3.0 (‘Over the Horizon’) 64bit
_STATISTICS_WRITING_DATE_UT : 2015-09-29 12:10:52
_STATISTICS_TAGS : BPS DURATION NUMBER_OF_FRAMES NUMBER_OF_BYTES

Video
ID : 1
Format : AVC
Format/Info : Advanced Video Codec
Format profile : [email protected]
Format settings, CABAC : Yes
Format settings, ReFrames : 4 frames
Codec ID : V_MPEG4/ISO/AVC
Duration : 1h 35mn
Bit rate : 5 183 Kbps
Nominal bit rate : 5 500 Kbps
Width : 1 280 pixels
Height : 534 pixels
Display aspect ratio : 2.40:1
Original display aspect rat : 2.40:1
Frame rate mode : Constant
Frame rate : 23.976 fps
Color space : YUV
Chroma subsampling : 4:2:0
Bit depth : 8 bits
Scan type : Progressive
Bits/(Pixel*Frame) : 0.316
Stream size : 3.47 GiB (76%)
Title : Narcopolis.2015.720p.BluRay.x264.DTS-RARBG
Writing library : x264 core 146 r2555 0c21480
Encoding settings : cabac=1 / ref=4 / deblock=1:-2:-2 / analyse=0x3:0x113 / me=umh / subme=7 / psy=1 / psy_rd=1.00:0.15 / mixed_ref=1 / me_range=16 / chroma_me=1 / trellis=1 / 8x8dct=1 / cqm=0 / deadzone=21,11 / fast_pskip=1 / chroma_qp_offset=-3 / threads=12 / lookahead_threads=3 / sliced_threads=0 / nr=0 / decimate=1 / interlaced=0 / bluray_compat=0 / constrained_intra=0 / bframes=3 / b_pyramid=2 / b_adapt=2 / b_bias=0 / direct=3 / weightb=1 / open_gop=0 / weightp=2 / keyint=250 / keyint_min=25 / scenecut=40 / intra_refresh=0 / rc_lookahead=50 / rc=abr / mbtree=1 / bitrate=5500 / ratetol=1.0 / qcomp=0.60 / qpmin=0 / qpmax=69 / qpstep=4 / vbv_maxrate=31250 / vbv_bufsize=31250 / nal_hrd=none / filler=0 / ip_ratio=1.40 / aq=1:1.00
Language : English
Default : Yes
Forced : No

Audio
ID : 2
Format : DTS
Format/Info : Digital Theater Systems
Mode : 16
Format settings, Endianness : Big
Codec ID : A_DTS
Duration : 1h 35mn
Bit rate mode : Constant
Bit rate : 1 509 Kbps
Channel(s) : 6 channels
Channel positions : Front: L C R, Side: L R, LFE
Sampling rate : 48.0 KHz
Bit depth : 24 bits
Compression mode : Lossy
Stream size : 1.01 GiB (22%)
Language : French
Default : Yes
Forced : No

Text
ID : 3
Format : UTF-8
Codec ID : S_TEXT/UTF8
Codec ID/Info : UTF-8 Plain Text
Title : FR ForcΘ
Default : Yes
Forced : No

Menu
00:00:00.000 : en:(01)00:00:00:000
00:05:15.565 : en:(02)00:05:15:565
00:11:28.312 : en:(03)00:11:28:312
00:17:47.316 : en:(04)00:17:47:316
00:24:54.910 : en:(05)00:24:54:910
00:30:41.756 : en:(06)00:30:41:756
00:36:19.510 : en:(07)00:36:19:510
00:41:12.678 : en:(08)00:41:12:678
00:48:24.735 : en:(09)00:48:24:735
00:55:05.844 : en:(10)00:55:05:844
00:59:59.846 : en:(11)00:59:59:846
01:07:17.074 : en:(12)01:07:17:074
01:14:49.902 : en:(13)01:14:49:902
01:18:12.312 : en:(14)01:18:12:312
01:23:50.984 : en:(15)01:23:50:984
01:30:35.930 : en:(16)01:30:35:930
01:35:44.405 : en:(17)01:35:44:405

SOURCES: Narcopolis.2015.720p.BluRay.x264.DTS-RARBG
DTS FRENCH :Narcopolis 2015 Multi Bluray 1080P AVCHD DTS-HDA 5.1 By TruckerBoys

Jeux Gratuit
15354131_1854970838071206_1069261547_o.png