Télécharger Né pour vaincre

(TRUEFRENCH = Vraie voix française)

Qualité DVDRiP | TRUEFRENCH

Né pour vaincre

Né pour vaincre

Origine du film : Américain
Réalisateur : Ivan Passer
Acteurs : George Segal, Paula Prentiss, Karen Black
Genre : Comédie, Drame, Policier
Durée : 1h28min
Année de production : 1971
Titre Original : Born to Win
Note spectateurs : Né pour vaincre 3/5 (7)

Né pour vaincre

Un junkie connu sous le nom de J.J tente de remonter la pente, et cela grâce à l’aide de la femme qu’il aime.
J.J. est un junkie complètement dépendant. Sa vie ne tourne qu’autour de la drogue : comment s’en procurer et comment trouver l’argent nécessaire à son achat. Marié à Véronica, ils vivent maintenant séparés, elle aussi junkie qui se prostitue pour pouvoir payer sa dose quotidienne. Mais J.J. a rencontré Palma, une fille pour laquelle il aimerait bien changer de vie…
95705″ style= »display:inline; »>

Né pour vaincre

Format : XviD

Né pour vaincre

(700 Mo)

Uptobox
Télécharger

Uploaded
Télécharger

TurboBit
Télécharger

Rapidgator
Télécharger

Uplea
Télécharger

1fichier
Télécharger

NFO :

Afficher / Masquer le texte b2292635079ec8b916ea850d992b6ce7″ class= »text_spoiler » style= »display:none; »>General
Complete name : F:miponyNn__Pour_Vaincre__Born_To_Win_.www.zone-telechargement.com.avi
Format : AVI
Format/Info : Audio Video Interleave
File size : 700 MiB
Duration : 1h 25mn
Overall bit rate : 1 147 Kbps
Writing application : FairUse Wizard – http://fairusewizard.com
Writing library : The best and REALLY easy backup tool

Video
ID : 0
Format : MPEG-4 Visual
Format profile : Advanced [email protected]
Format settings, BVOP : 1
Format settings, QPel : No
Format settings, GMC : No warppoints
Format settings, Matrix : Default (MPEG)
Muxing mode : Packed bitstream
Codec ID : XVID
Codec ID/Hint : XviD
Duration : 1h 25mn
Bit rate : 1 009 Kbps
Width : 624 pixels
Height : 336 pixels
Display aspect ratio : 1.85:1
Frame rate : 25.000 fps
Color space : YUV
Chroma subsampling : 4:2:0
Bit depth : 8 bits
Scan type : Progressive
Compression mode : Lossy
Bits/(Pixel*Frame) : 0.192
Stream size : 616 MiB (88%)
Writing library : XviD 1.2.1 (UTC 2008-12-04)

Audio
ID : 1
Format : MPEG Audio
Format version : Version 1
Format profile : Layer 3
Mode : Joint stereo
Mode extension : MS Stereo
Codec ID : 55
Codec ID/Hint : MP3
Duration : 1h 25mn
Bit rate mode : Constant
Bit rate : 128 Kbps
Channel(s) : 2 channels
Sampling rate : 48.0 KHz
Compression mode : Lossy
Stream size : 78.1 MiB (11%)
Alignment : Aligned on interleaves
Interleave, duration : 40 ms (1.00 video frame)
Interleave, preload duration : 504 ms
Writing library : LAME3.97
Encoding settings : -m j -V 4 -q 2 -lowpass 17 -b 128