Télécharger Neverwas French

Qualité DVDRiP | FRENCH

Neverwas

Neverwas

Origine du film : Américain
Réalisateur : Joshua Michael Stern
Acteurs : Aaron Eckhart, Ian McKellen, Brittany Murphy
Genre : Drame, Policier
Durée : 1h48min
Année de production : 2005
Note spectateurs : Neverwas 3,1/5 (11)
Bande annonce :

f1f49d39259aa61d16ce1bba8f7b8e6b

19490552″>Cliquez-ici pour voir la bande annonce f1f49d39259aa61d16ce1bba8f7b8e6b »> 19490552

f1f49d39259aa61d16ce1bba8f7b8e6b

Neverwas

Un jeune homme, diplômé de l’Université de Yale, trouve un emploi dans un hôpital psychiatrique, où son père a passé les dernières années de sa vie. Sur place, il fait la rencontre d’un schizophrène qui a entretenu d’étranges relations avec son paternel.
104033″ style= »display:inline; »>

Neverwas

Format : XviD

Neverwas

(700 Mo)

Uptobox
Télécharger

Uploaded
Télécharger

TurboBit
Télécharger

Rapidgator
Télécharger

Uplea
Télécharger

1fichier
Télécharger

NFO :

Afficher / Masquer le texte 250d0e7ff59ab36daab5549ea6ad1d58″ class= »text_spoiler » style= »display:none; »>General
Complete name : F:miponyNeverwas .www.zone-telechargement.com.avi
Format : AVI
Format/Info : Audio Video Interleave
File size : 699 MiB
Duration : 1h 42mn
Overall bit rate : 950 Kbps
Writing application : FairUse Wizard – http://fairusewizard.com
Writing library : The best and REALLY easy backup tool

Video
ID : 0
Format : MPEG-4 Visual
Format profile : Advanced [email protected]
Format settings, BVOP : 1
Format settings, QPel : No
Format settings, GMC : No warppoints
Format settings, Matrix : Default (MPEG)
Muxing mode : Packed bitstream
Codec ID : XVID
Codec ID/Hint : XviD
Duration : 1h 42mn
Bit rate : 813 Kbps
Width : 640 pixels
Height : 256 pixels
Display aspect ratio : 2.500
Frame rate : 23.976 fps
Color space : YUV
Chroma subsampling : 4:2:0
Bit depth : 8 bits
Scan type : Progressive
Compression mode : Lossy
Bits/(Pixel*Frame) : 0.207
Stream size : 598 MiB (86%)
Writing library : XviD 1.2.0.dev47 (UTC 2006-11-01)

Audio
ID : 1
Format : MPEG Audio
Format version : Version 1
Format profile : Layer 3
Mode : Joint stereo
Mode extension : MS Stereo
Codec ID : 55
Codec ID/Hint : MP3
Duration : 1h 42mn
Bit rate mode : Constant
Bit rate : 128 Kbps
Channel(s) : 2 channels
Sampling rate : 48.0 KHz
Compression mode : Lossy
Stream size : 94.1 MiB (13%)
Alignment : Aligned on interleaves
Interleave, duration : 42 ms (1.00 video frame)
Interleave, preload duration : 504 ms
Writing library : LAME3.97b
Encoding settings : -m j -V 4 -q 2 -lowpass 17 -b 128

Jeux Gratuit
15354131_1854970838071206_1069261547_o.png