Telecharger Ninja Assassin [VF] [Dvdrip]

(TRUEFRENCH = Vraie voix française)

Qualité BLURAY 720p | MULTiLANGUES (Avec TRUEFRENCH) | son DTS

Ninja Assassin

Ninja Assassin

Origine du film : Américain, Allemand
Réalisateur : James McTeigue
Acteurs : Rain, Naomie Harris, Sung Kang
Genre : Action, Policier, Thriller
Durée : 1h39min
Date de sortie : 10 février 2010
Année de production : 2009
Distribué par : StudioCanal
Note presse : Ninja Assassin 2,8/5
Note spectateurs : Ninja Assassin

; »>2,8/5 (1 560)
Bande annonce :

6d970ddf489cb3cd6b4593730fc146e2

18942454″>Cliquez-ici pour voir la bande annonce 6d970ddf489cb3cd6b4593730fc146e2″> 18942454

6d970ddf489cb3cd6b4593730fc146e2

Ninja Assassin

Raizo, jeune ninja orphelin, a été entraîné à tuer par le clan Ozunu. Après l’exécution de son seul ami, Raizo est soudainement en proie au doute, et quitte alors le clan afin de préparer sa vengeance… Des années plus tard, à Berlin, Raizo tombe sur l’agent d’Europol Mika Coretti qui, après avoir levé le voile sur une affaire politique mettant en cause une mystérieuse organisation asiatique, est devenue la cible du clan Ozunu. Traqués, tous deux se lancent dans une dangereuse course-poursuite…
101393″ style= »display:inline; »>

Ninja Assassin

Format : MKV
Découpé avec : Winrar

Ninja Assassin

Ninja.Assassin.2009.MULTi.TRUEFRENCH.720p.BluRay.DTS.x264-KLI

(5368 Mo)

[Liens Interchangeables entre hébergeurs: 5x 1000 Mo + 1x 368 Mo]

Uptobox
Télécharger

Uplea
Télécharger

1fichier
Télécharger

Uploaded
Télécharger

Rapidgator
Télécharger

TurboBit
Télécharger

[ Liens Premium ]

Uptobox
Télécharger

Uplea
Télécharger

1fichier
Télécharger

Uploaded
Télécharger

TurboBit
Télécharger

NFO :

Afficher / Masquer le texte e3bc0e4851f4334b7f6ff6bceb853cef » class= »text_spoiler » style= »display:none; »>Ninja.Assassin.2009.MULTi.720p.BluRay.DTS.x264-KLI.zone-telechargement.com.mkv
Format : Matroska
Format version : Version 4 / Version 2
File size : 5.24 GiB
Duration : 1h 38mn
Overall bit rate : 7 618 Kbps
Movie name : Ninja Assassin 2009 Encode By KLI (kali1030) FRA BD25
Encoded date : UTC 2015-09-07 00:11:19
Writing application : mkvmerge v8.2.0 (‘World of Adventure’) 64bit
Writing library : libebml v1.3.1 + libmatroska v1.4.2

Video
ID : 1
Format : AVC
Format/Info : Advanced Video Codec
Format profile : [email protected]
Format settings, CABAC : Yes
Format settings, ReFrames : 5 frames
Codec ID : V_MPEG4/ISO/AVC
Duration : 1h 38mn
Bit rate : 4 597 Kbps
Width : 1 280 pixels
Height : 544 pixels
Display aspect ratio : 2.35:1
Frame rate mode : Constant
Frame rate : 24.000 fps
Color space : YUV
Chroma subsampling : 4:2:0
Bit depth : 8 bits
Scan type : Progressive
Bits/(Pixel*Frame) : 0.275
Stream size : 3.06 GiB (58%)
Title : Ninja Assassin 2009 Encode By KLI (kali1030)
Writing library : x264 core 146
Encoding settings : cabac=1 / ref=5 / deblock=1:-1:-1 / analyse=0x3:0x113 / me=umh / subme=8 / psy=1 / psy_rd=1,00:0,20 / mixed_ref=1 / me_range=16 / chroma_me=1 / trellis=2 / 8x8dct=1 / cqm=0 / deadzone=21,11 / fast_pskip=1 / chroma_qp_offset=-3 / threads=12 / lookahead_threads=3 / sliced_threads=0 / nr=0 / decimate=1 / interlaced=0 / bluray_compat=0 / constrained_intra=0 / bframes=4 / b_pyramid=2 / b_adapt=2 / b_bias=0 / direct=1 / weightb=1 / open_gop=0 / weightp=2 / keyint=240 / keyint_min=24 / scenecut=40 / intra_refresh=0 / rc_lookahead=40 / rc=2pass / mbtree=1 / bitrate=4597 / ratetol=1,0 / qcomp=0,60 / qpmin=0 / qpmax=69 / qpstep=4 / cplxblur=20,0 / qblur=0,5 / vbv_maxrate=62500 / vbv_bufsize=78125 / nal_hrd=none / filler=0 / ip_ratio=1,40 / aq=1:1,00
Language : French
Default : Yes
Forced : No
Color primaries : BT.709
Transfer characteristics : BT.709
Matrix coefficients : BT.709

Audio #1
ID : 2
Format : DTS
Format/Info : Digital Theater Systems
Mode : 16
Format settings, Endianness : Big
Codec ID : A_DTS
Duration : 1h 38mn
Bit rate mode : Constant
Bit rate : 1 509 Kbps
Channel count : 6 channels
Channel positions : Front: L C R, Side: L R, LFE
Sampling rate : 48.0 KHz
Bit depth : 16 bits
Compression mode : Lossy
Stream size : 1.04 GiB (20%)
Title : French VFF DTS 5.1 @1509 Kbps
Language : French
Default : Yes
Forced : No

Audio #2
ID : 3
Format : DTS
Format/Info : Digital Theater Systems
Mode : 16
Format settings, Endianness : Big
Codec ID : A_DTS
Duration : 1h 38mn
Bit rate mode : Constant
Bit rate : 1 509 Kbps
Channel count : 6 channels
Channel positions : Front: L C R, Side: L R, LFE
Sampling rate : 48.0 KHz
Bit depth : 16 bits
Compression mode : Lossy
Stream size : 1.04 GiB (20%)
Title : English DTS 5.1 @1509 Kbps
Language : English
Default : No
Forced : No

Text #1
ID : 4
Format : PGS
Muxing mode : zlib
Codec ID : S_HDMV/PGS
Codec ID/Info : The same subtitle format used on BDs/HD-DVDs
Title : PGS French Full
Language : French
Default : No
Forced : No

Text #2
ID : 5
Format : UTF-8
Codec ID : S_TEXT/UTF8
Codec ID/Info : UTF-8 Plain Text
Title : French Full
Language : French
Default : No
Forced : No

Jeux Gratuit
15354131_1854970838071206_1069261547_o.png