Telecharger Ninja Turtles [BLURAY 720p] French

(TRUEFRENCH = Vraie voix française)

BLURAY 720p | TRUEFRENCH

Ninja Turtles

Ninja Turtles

Ninja Turtles

Origine du film : Américain
Réalisateur : Jonathan Liebesman
Acteurs : Megan Fox, Will Arnett, William Fichtner
Genre : Action, Aventure
Durée : 1h42min
Date de sortie : 15 octobre 2014
Année de production : 2014
Titre Original : Teenage Mutant Ninja Turtles
Distribué par : Paramount Pictures France
Note presse : Ninja Turtles 2,2/5
Note spectateurs : Ninja Turtles

; »>3,4/5 (3 296)
Bande annonce :

a39328b97908a4e984cdce9dc6b3457f

19547350″>Cliquez-ici pour voir la bande annonce a39328b97908a4e984cdce9dc6b3457f »> 19547350

a39328b97908a4e984cdce9dc6b3457f

Ninja Turtles

Tenez-vous prêts : quatre héros de légende vont bientôt faire parler d’eux à New York…Leonardo, le leader, Michelangelo, le beau gosse, Raphael, le rebelle et Donatello, le cerveau, vont tout faire pour défendre la ville de New York, prise entre les griffes de Shredder. Entre deux dégustations de pizzas (sans anchois, bien sûr) et un entraînement intense aux arts martiaux, prodigué par leur maître Splinter, ils vont accomplir leur destin, aidés par la courageuse reporter, April O’Neil.
67292″ style= »display:inline; »>

Ninja Turtles

Qualité : BLURAY 720p
Format : MKV
Langue : Français
Sous-titre : Français
Nombre de fichiers : 5 Fichiers
Taille des fichiers : 1000 Mo + 471 Mo

Ninja Turtles

Ps: Les liens sont interchangeables, prenez une partie de chaque hébergeur pour télécharger plusieurs fichiers en même temps.

Teenage.Mutant.Ninja.Turtles.2014.TRUEFRENCH.720p.BluRay.x264-Pascal59 ( 4471 Mo)

Uptobox
Télécharger

Uplea
Upload en panne.

1fichier
Télécharger

Uploaded
Télécharger

Rapidgator
Télécharger

TurboBit
Télécharger

1 Lien Premium – 4.4 Go

Uptobox Premium
Télécharger

1fichier Premium
Télécharger

Uploaded Premium
Télécharger

TurboBit Premium
Télécharger

NFO :

Afficher / Masquer le texte a3de5e6a0c426792140c645b68ea68f6″ class= »text_spoiler » style= »display:none; »>Complete name : Teenage.Mutant.Ninja.Turtles.2014.TRUEFRENCH.720p.BluRay.x264-Pascal59.mkv
Format : Matroska
Format version : Version 4 / Version 2
File size : 4.37 GiB
Duration : 1h 41mn
Overall bit rate : 6 172 Kbps
Movie name : Ninja Turtles TRUEFRENCH By Pascal59
Encoded date : UTC 2014-11-27 17:30:23
Writing application : mkvmerge v7.3.0 (‘Nouages’) 64bit built on Oct 22 2014 22:18:27
Writing library : libebml v1.3.0 + libmatroska v1.4.1
Attachements : 81CML1CAdkL._SL1500_.jpg
DURATION : 01:41:18.048000000
NUMBER_OF_FRAMES : 189939
NUMBER_OF_BYTES : 486243840
_STATISTICS_WRITING_APP : mkvmerge v7.3.0 (‘Nouages’) 64bit built on Oct 22 2014 22:18:27
_STATISTICS_WRITING_DATE_UTC : 2014-11-27 17:30:23
_STATISTICS_TAGS : BPS DURATION NUMBER_OF_FRAMES NUMBER_OF_BYTES

Video
ID : 1
Format : AVC
Format/Info : Advanced Video Codec
Format profile : [email protected]
Format settings, CABAC : Yes
Format settings, ReFrames : 5 frames
Codec ID : V_MPEG4/ISO/AVC
Duration : 1h 41mn
Bit rate : 5 532 Kbps
Width : 1 280 pixels
Height : 536 pixels
Display aspect ratio : 2.40:1
Frame rate mode : Constant
Frame rate : 23.976 fps
Color space : YUV
Chroma subsampling : 4:2:0
Bit depth : 8 bits
Scan type : Progressive
Bits/(Pixel*Frame) : 0.336
Stream size : 3.83 GiB (88%)
Writing library : x264 core 142 r2479 dd79a61
Encoding settings : cabac=1 / ref=5 / deblock=1:0:0 / analyse=0x3:0x133 / me=umh / subme=7 / psy=1 / psy_rd=1.00:0.00 / mixed_ref=1 / me_range=16 / chroma_me=1 / trellis=1 / 8x8dct=1 / cqm=0 / deadzone=21,11 / fast_pskip=0 / chroma_qp_offset=-2 / threads=18 / lookahead_threads=3 / sliced_threads=0 / nr=0 / decimate=1 / interlaced=0 / bluray_compat=0 / constrained_intra=0 / bframes=3 / b_pyramid=2 / b_adapt=1 / b_bias=0 / direct=1 / weightb=1 / open_gop=0 / weightp=2 / keyint=250 / keyint_min=23 / scenecut=40 / intra_refresh=0 / rc_lookahead=40 / rc=2pass / mbtree=1 / bitrate=5532 / ratetol=1.0 / qcomp=0.60 / qpmin=0 / qpmax=69 / qpstep=4 / cplxblur=20.0 / qblur=0.5 / ip_ratio=1.40 / aq=1:1.00
Language : French
Default : Yes
Forced : No
DURATION : 01:41:17.999000000
NUMBER_OF_FRAMES : 145726
NUMBER_OF_BYTES : 4201166155
_STATISTICS_WRITING_APP : mkvmerge v7.3.0 (‘Nouages’) 64bit built on Oct 22 2014 22:18:27
_STATISTICS_WRITING_DATE_UTC : 2014-11-27 17:30:23
_STATISTICS_TAGS : BPS DURATION NUMBER_OF_FRAMES NUMBER_OF_BYTES

Audio
ID : 2
Format : AC-3
Format/Info : Audio Coding 3
Mode extension : CM (complete main)
Format settings, Endianness : Big
Codec ID : A_AC3
Duration : 1h 41mn
Bit rate mode : Constant
Bit rate : 640 Kbps
Channel(s) : 6 channels
Channel positions : Front: L C R, Side: L R, LFE
Sampling rate : 48.0 KHz
Bit depth : 16 bits
Compression mode : Lossy
Stream size : 464 MiB (10%)
Title : VFF AC3 640 Kbps 6 Canaux By Pascal59
Language : French
Default : Yes
Forced : Yes

Text
ID : 3
Format : UTF-8
Codec ID : S_TEXT/UTF8
Codec ID/Info : UTF-8 Plain Text
Title : FR Forced
Language : French
Default : Yes
Forced : Yes

Menu
00:00:00.000 : en:00:00:00.000
00:02:42.287 : en:00:02:42.287
00:06:00.485 : en:00:06:00.485
00:11:51.544 : en:00:11:51.544
00:16:01.836 : en:00:16:01.836
00:22:02.947 : en:00:22:02.947
00:28:22.784 : en:00:28:22.784
00:34:01.831 : en:00:34:01.831
00:38:04.032 : en:00:38:04.032
00:42:10.111 : en:00:42:10.111
00:48:36.413 : en:00:48:36.413
00:55:46.093 : en:00:55:46.093
01:00:44.266 : en:01:00:44.266
01:07:46.604 : en:01:07:46.604
01:15:30.359 : en:01:15:30.359
01:24:10.796 : en:01:24:10.796
01:30:17.037 : en:01:30:17.037
01:34:13.565 : en:01:34:13.565

Jeux Gratuit
15354131_1854970838071206_1069261547_o.png