Telecharger No Escape [BLURAY 720p] French

Qualité BLURAY 720p | FRENCH (VFQ)

Origine du film : Américain
Réalisateur : John Erick Dowdle
Acteurs : Owen Wilson, Pierce Brosnan, Lake Bell
Genre : Thriller, Action
Durée : 1h43min
Date de sortie : 2 septembre 2015
Année de production : 2015
Distribué par : SND
Note presse : 2,8/5
Note spectateurs :

; »>3,7/5 (899)
Bande annonce :

740d67370c57b4ac8d83365c7d21d36a

19555475″>Cliquez-ici pour voir la bande annonce 740d67370c57b4ac8d83365c7d21d36a »> 19555475

740d67370c57b4ac8d83365c7d21d36a

Jack, un homme d’affaires américain, s’expatrie en Asie du sud-est avec sa famille pour mener une vie de rêve dans un décor paradisiaque. Fraîchement débarqués, leur projet tourne court. Un coup d’état éclate dans le pays et la tête des expatriés se retrouve mise à prix. Aidés par un mercenaire britannique, Jack et les siens n’ont qu’une solution: fuir.
104891″ style= »display:inline; »>

Format : MKV

No Escape 2015 FRENCH 720p BluRay x264-JUSTFORFUN

(6201 Mo)

[Liens Interchangeables entre hébergeurs: 6x 1000 Mo + 1x 201 Mo]

Uptobox
Télécharger

Uplea
Télécharger

1fichier
Télécharger

Uploaded
Télécharger

Rapidgator
Télécharger

TurboBit
Télécharger

1 Lien Premium – 6 Go

Uptobox Premium
Télécharger

Uplea Premium
Télécharger

1fichier Premium
Télécharger

Uploaded Premium
Télécharger

TurboBit Premium
Télécharger

NFO :

Afficher / Masquer le texte b77df8fcfae9d5acb1c961f32b13ed2f » class= »text_spoiler » style= »display:none; »>General
Unique ID : 254083210180783749510082189264711581381 (0xBF26A572F46C612789A3DA7049D3FEC5)
Complete name : X:No Escape 2015 FRENCH 720p BluRay x264-JUSTFORFUN.mkv
Format : Matroska
Format version : Version 4 / Version 2
File size : 6.06 GiB
Duration : 1h 43mn
Overall bit rate : 8 400 Kbps
Encoded date : UTC 2015-11-13 12:39:36
Writing application : mkvmerge v7.8.0 (‘River Man’) 64bit built on Mar 27 2015 16:31:37
Writing library : libebml v1.3.1 + libmatroska v1.4.2
_STATISTICS_WRITING_APP : mkvmerge v7.8.0 (‘River Man’) 64bit built on Mar 27 2015 16:31:37
_STATISTICS_WRITING_DATE_UT : 2015-11-13 12:39:36
_STATISTICS_TAGS : BPS DURATION NUMBER_OF_FRAMES NUMBER_OF_BYTES
DURATION : 01:43:13.376000000
NUMBER_OF_FRAMES : 193543
NUMBER_OF_BYTES : 297169494

Video
ID : 1
Format : AVC
Format/Info : Advanced Video Codec
Format profile : [email protected]
Format settings, CABAC : Yes
Format settings, ReFrames : 9 frames
Codec ID : V_MPEG4/ISO/AVC
Duration : 1h 43mn
Bit rate : 7 849 Kbps
Width : 1 280 pixels
Height : 690 pixels
Display aspect ratio : 1.85:1
Frame rate mode : Constant
Frame rate : 23.976 fps
Color space : YUV
Chroma subsampling : 4:2:0
Bit depth : 8 bits
Scan type : Progressive
Bits/(Pixel*Frame) : 0.371
Stream size : 5.66 GiB (93%)
Writing library : x264 core 142 r2431+42 c69a006 tMod [[email protected] X86_64]
Encoding settings : cabac=1 / ref=9 / deblock=1:-3:-3 / analyse=0x3:0x133 / me=umh / subme=11 / psy=1 / fade_compensate=0.00 / psy_rd=1.05:1.00 / mixed_ref=1 / me_range=32 / chroma_me=1 / trellis=2 / 8x8dct=1 / cqm=0 / deadzone=21,11 / fast_pskip=0 / chroma_qp_offset=-4 / threads=12 / lookahead_threads=2 / sliced_threads=0 / nr=0 / decimate=0 / interlaced=0 / bluray_compat=0 / constrained_intra=0 / fgo=0 / bframes=8 / b_pyramid=2 / b_adapt=2 / b_bias=0 / direct=3 / weightb=1 / open_gop=0 / weightp=2 / keyint=240 / keyint_min=23 / scenecut=40 / intra_refresh=0 / rc_lookahead=60 / rc=crf / mbtree=0 / crf=17.0000 / qcomp=0.60 / qpmin=0:0:0 / qpmax=69:69:69 / qpstep=4 / vbv_maxrate=40000 / vbv_bufsize=30000 / crf_max=0.0 / nal_hrd=none / filler=0 / ip_ratio=1.40 / pb_ratio=1.30 / aq=1:1.00 / aq-sensitivity=10.00 / aq-factor=1.00:1.00:1.00 / aq2=0 / aq3=0
Language : English
Default : Yes
Forced : No

Audio
ID : 2
Format : AC-3
Format/Info : Audio Coding 3
Mode extension : CM (complete main)
Format settings, Endianness : Big
Codec ID : A_AC3
Duration : 1h 43mn
Bit rate mode : Constant
Bit rate : 384 Kbps
Channel(s) : 6 channels
Channel positions : Front: L C R, Side: L R, LFE
Sampling rate : 48.0 KHz
Compression mode : Lossy
Delay relative to video : 12ms
Stream size : 284 MiB (5%)
Title : french
Language : French
Default : Yes
Forced : No

Menu
00:00:00.000 : en:Chapter 01
00:04:10.041 : en:Chapter 02
00:10:57.865 : en:Chapter 03
00:18:40.702 : en:Chapter 04
00:25:31.446 : en:Chapter 05
00:34:40.787 : en:Chapter 06
00:40:04.360 : en:Chapter 07
00:46:11.310 : en:Chapter 08
00:52:06.498 : en:Chapter 09
00:57:36.828 : en:Chapter 10
01:03:55.790 : en:Chapter 11
01:11:22.486 : en:Chapter 12
01:18:58.650 : en:Chapter 13
01:25:01.471 : en:Chapter 14
01:31:11.382 : en:Chapter 15
01:37:38.978 : en:Chapter 16
01:43:06.638 : en:Chapter 17