Telecharger No Pain No Gain [BLURAY 720p] French

(TRUEFRENCH = Vraie voix française)

BLURAY 720p | TRUEFRENCH

No Pain No Gain

No Pain No Gain

No Pain No Gain

Origine du film : Américain
Réalisateur : Michael Bay
Acteurs : Mark Wahlberg, Dwayne Johnson, Ed Harris
Genre : Action, Drame, Comédie
Durée : 2h09min
Date de sortie : 11 septembre 2013
Année de production : 2013
Titre Original : Pain & Gain
Distribué par : Paramount Pictures France
Note presse : No Pain No Gain 3,1/5
Note spectateurs : No Pain No Gain

; »>3,3/5 (3 323)
Bande annonce :

ab5d7e86d9409b5ca5916fba547593be

19536064″>Cliquez-ici pour voir la bande annonce ab5d7e86d9409b5ca5916fba547593be »> 19536064

ab5d7e86d9409b5ca5916fba547593be

No Pain No Gain

À Miami, Daniel Lugo, coach sportif, ferait n’importe quoi pour vivre le « rêve américain » et profiter, comme sa clientèle fortunée, de ce que la vie offre de meilleur : maisons de luxe, voitures de course et filles de rêve… Pour se donner toutes les chances d’y arriver, il dresse un plan simple et (presque) parfait : enlever un de ses plus riches clients et… lui voler sa vie. Il embarque avec lui deux complices, Paul Doyle et Adrian Doorbal, aussi influençables qu’ambitieux. 41110″ style= »display:inline; »>

Qualité : BLURAY 720p
Format : MKV
Langue : Français
Sous-titre : Français
Nombre de fichiers : 5 Fichiers
Taille des fichiers : 1000 Mo 471 Mo

Ps: Les liens sont interchangeables, prenez une partie de chaque hébergeur pour télécharger plusieurs fichiers en même temps. smile

Pain.and.Gain.2013.TRUEFRENCH.720p.BluRay.x264-Thursday19th ( 4471 Mo)

1fichier
Télécharger

Uptobox
Télécharger

Uploaded
Télécharger

Rapidgator
Télécharger

TurboBit
Télécharger

1 Lien Premium – 4.4 Go

1fichier Premium
Télécharger

Uptobox Premium
Télécharger

Uploaded Premium
Télécharger

TurboBit Premium
Télécharger

NFO :

Afficher / Masquer le texte ff794c2f069d4d4281dfdabf8a0cf312″ class= »text_spoiler » style= »display:none; »>General
Complete name : pain.and.gain.2013.truefrench.720p.bluray.x264-thursday19th.mkv
Format : Matroska
Format version : Version 2
File size : 4.37 GiB
Duration : 2h 9mn
Overall bit rate : 4 823 Kbps
Writing application : mkvmerge v4.1.1 ('Bouncin' Back') built on Jul 3 2010 22:54:08
Writing library : libebml v1.0.0 libmatroska v1.0

Video
ID : 1
Format : AVC
Format/Info : Advanced Video Codec
Format profile : [email protected]
Format settings, CABAC : Yes
Format settings, ReFrames : 5 frames
Codec ID : V_MPEG4/ISO/AVC
Duration : 2h 9mn
Bit rate : 4 183 Kbps
Width : 1 280 pixels
Height : 536 pixels
Display aspect ratio : 2.40:1
Frame rate mode : Constant
Frame rate : 23.976 fps
Color space : YUV
Chroma subsampling : 4:2:0
Bit depth : 8 bits
Scan type : Progressive
Bits/(Pixel*Frame) : 0.254
Stream size : 3.70 GiB (85%)
Writing library : x264 core 140 r2377 1ca7bb9
Encoding settings : cabac=1 / ref=5 / deblock=1:0:0 / analyse=0x3:0x133 / me=umh / subme=7 / psy=1 / psy_rd=1.00:0.00 / mixed_ref=1 / me_range=16 / chroma_me=1 / trellis=1 / 8x8dct=1 / cqm=0 / deadzone=21,11 / fast_pskip=0 / chroma_qp_offset=-2 / threads=12 / lookahead_threads=2 / sliced_threads=0 / nr=0 / decimate=1 / interlaced=0 / bluray_compat=0 / constrained_intra=0 / bframes=3 / b_pyramid=2 / b_adapt=2 / b_bias=0 / direct=3 / weightb=1 / open_gop=0 / weightp=2 / keyint=250 / keyint_min=23 / scenecut=40 / intra_refresh=0 / rc_lookahead=50 / rc=2pass / mbtree=1 / bitrate=4183 / ratetol=1.0 / qcomp=0.60 / qpmin=0 / qpmax=69 / qpstep=4 / cplxblur=20.0 / qblur=0.5 / ip_ratio=1.40 / aq=1:1.00
Language : English
Default : Yes
Forced : No

Audio
ID : 2
Format : AC-3
Format/Info : Audio Coding 3
Mode extension : CM (complete main)
Format settings, Endianness : Big
Codec ID : A_AC3
Duration : 2h 9mn
Bit rate mode : Constant
Bit rate : 640 Kbps
Channel(s) : 6 channels
Channel positions : Front: L C R, Side: L R, LFE
Sampling rate : 48.0 KHz
Bit depth : 16 bits
Compression mode : Lossy
Stream size : 593 MiB (13%)
Title : FR
Language : French
Default : Yes
Forced : No

Text
ID : 3
Format : UTF-8
Codec ID : S_TEXT/UTF8
Codec ID/Info : UTF-8 Plain Text
Title : FRF
Language : French
Default : Yes
Forced : Yes

Jeux Gratuit
15354131_1854970838071206_1069261547_o.png