Télécharger Nos plus belles années

Qualité BLURAY 720p | FRENCH | son DTS

Nos plus belles années

Nos plus belles années

Origine du film : Américain
Réalisateur : Sydney Pollack
Acteurs : Barbra Streisand, Robert Redford, Bradford Dillman
Genre : Drame, Romance
Durée : 1h50min
Date de sortie : janvier 1974
Année de production : 1973
Titre Original : The Way We Were
Distribué par : Ciné Sorbonne
Note spectateurs : Nos plus belles années 3,8/5 (320)
Bande annonce :

46cab2f60f81e5b27d3cbe598f9b269c

19435995″>Cliquez-ici pour voir la bande annonce 46cab2f60f81e5b27d3cbe598f9b269c »> 19435995

46cab2f60f81e5b27d3cbe598f9b269c

Nos plus belles années

Deux jeunes américains se rencontrent sur les bancs de l’université en 1937. La jeune femme est militante communiste alors que lui est un tombeur sans conscience politique. Une fois mariés, ils s’installent à Hollywood au moment où débute la chasse aux sorcières aux Etats-Unis, synonyme du commencement du maccarthysme…
103233″ style= »display:inline; »>

Nos plus belles années

Format : MKV
Découpé avec : Winrar

Nos plus belles années

The.Way.We.Were.1973.FRENCH.720p.BluRay.x264-ULSHD

(4476 Mo)

[Liens Interchangeables entre hébergeurs: 4x 1000 Mo + 1x 476 Mo]

Uptobox
Télécharger

Uplea
Télécharger

1fichier
Télécharger

Uploaded
Télécharger

Rapidgator
Télécharger

TurboBit
Télécharger

[ Liens Premium ]

Uptobox
Télécharger

Uplea
Télécharger

1fichier
Télécharger

Uploaded
Télécharger

TurboBit
Télécharger

NFO :

Afficher / Masquer le texte fae12cf1cddbe2d8c60f671c53fac876″ class= »text_spoiler » style= »display:none; »>The.Way.We.Were.1973.FRENCH.720p.BluRay.x264-ULSHD.zone-telechargement.com.mkv
Format : Matroska
Format version : Version 2
File size : 4.37 GiB
Duration : 1h 58mn
Overall bit rate : 5 291 Kbps
Writing application : mkvmerge v4.1.1 (‘Bouncin’ Back’) built on Jul 3 2010 22:54:08
Writing library : libebml v1.0.0 + libmatroska v1.0

Video
ID : 1
Format : AVC
Format/Info : Advanced Video Codec
Format profile : [email protected]
Format settings, CABAC : Yes
Format settings, ReFrames : 5 frames
Codec ID : V_MPEG4/ISO/AVC
Duration : 1h 58mn
Bit rate : 4 650 Kbps
Width : 1 280 pixels
Height : 536 pixels
Display aspect ratio : 2.40:1
Frame rate mode : Constant
Frame rate : 23.976 fps
Color space : YUV
Chroma subsampling : 4:2:0
Bit depth : 8 bits
Scan type : Progressive
Bits/(Pixel*Frame) : 0.283
Stream size : 3.76 GiB (86%)
Writing library : x264 core 133 r2334 a3ac64b
Encoding settings : cabac=1 / ref=5 / deblock=1:-3:-3 / analyse=0x3:0x113 / me=umh / subme=8 / psy=1 / psy_rd=1.00:0.00 / mixed_ref=1 / me_range=16 / chroma_me=1 / trellis=1 / 8x8dct=1 / cqm=0 / deadzone=21,11 / fast_pskip=1 / chroma_qp_offset=-2 / threads=18 / lookahead_threads=3 / sliced_threads=0 / nr=0 / decimate=1 / interlaced=0 / bluray_compat=0 / constrained_intra=0 / bframes=3 / b_pyramid=2 / b_adapt=2 / b_bias=0 / direct=3 / weightb=1 / open_gop=0 / weightp=2 / keyint=240 / keyint_min=24 / scenecut=40 / intra_refresh=0 / rc_lookahead=50 / rc=2pass / mbtree=1 / bitrate=4650 / ratetol=1.0 / qcomp=0.60 / qpmin=0 / qpmax=69 / qpstep=4 / cplxblur=20.0 / qblur=0.5 / ip_ratio=1.40 / aq=1:1.00
Language : English
Default : Yes
Forced : No

Audio
ID : 2
Format : AC-3
Format/Info : Audio Coding 3
Mode extension : CM (complete main)
Format settings, Endianness : Big
Codec ID : A_AC3
Duration : 1h 58mn
Bit rate mode : Constant
Bit rate : 640 Kbps
Channel(s) : 6 channels
Channel positions : Front: L C R, Side: L R, LFE
Sampling rate : 48.0 KHz
Compression mode : Lossy
Stream size : 541 MiB (12%)
Language : French
Default : Yes
Forced : No

Text
ID : 3
Format : UTF-8
Codec ID : S_TEXT/UTF8
Codec ID/Info : UTF-8 Plain Text
Title : Forced
Language : French
Default : Yes
Forced : No

Jeux Gratuit
15354131_1854970838071206_1069261547_o.png