Télécharger Nurse Betty French

(TRUEFRENCH = Vraie voix française)

Qualité DVDRiP | TRUEFRENCH

Nurse Betty

Nurse Betty

Origine du film : Allemand, Américain
Réalisateur : Neil LaBute
Acteurs : Renée Zellweger, Morgan Freeman, Chris Rock
Genre : Policier, Romance, Comédie dramatique, Thriller
Durée : 1h50min
Date de sortie : 30 août 2000
Année de production : 2000
Note presse : Nurse Betty 3,4/5
Note spectateurs : Nurse Betty 2,5/5 (361)
Bande annonce :

1059d416d123e39fb14d40132c35dc31

19439640″>Cliquez-ici pour voir la bande annonce 1059d416d123e39fb14d40132c35dc31″> 19439640

1059d416d123e39fb14d40132c35dc31

Nurse Betty

Serveuse dans un restaurant d’une petite ville du Texas, Betty a toujours rêvé de devenir infirmière. Elle trouve une échappatoire à sa vie médiocre dans son feuilleton préféré, Amour et passion, un soap opera au séduisant héros, le docteur David Ravell.Une nuit, Betty assiste au meurtre sauvage de son mari par deux truands. En état de choc, elle nie cette réalité traumatisante et se réfugie dans l’univers de sa série favorite. Dorénavant persuadée qu’elle est réellement infirmière, elle part rejoindre le docteur de ses rêves, poursuivie par les meurtriers.
104029″ style= »display:inline; »>

Nurse Betty

Format : XviD

Nurse Betty

(716 Mo)

Uptobox
Télécharger

Uploaded
Télécharger

TurboBit
Télécharger

Rapidgator
Télécharger

Uplea
Télécharger

1fichier
Télécharger

NFO :

Afficher / Masquer le texte 9431bd6dd461f77619ef2e732f78994f » class= »text_spoiler » style= »display:none; »>General
Complete name : F:miponyNurse Betty .www.zone-telechargement.com.avi
Format : AVI
Format/Info : Audio Video Interleave
File size : 700 MiB
Duration : 1h 45mn
Overall bit rate : 928 Kbps
Writing application : FairUse Wizard – http://fairusewizard.com
Writing library : The best and REALLY easy backup tool

Video
ID : 0
Format : MPEG-4 Visual
Format profile : Advanced [email protected]
Format settings, BVOP : 1
Format settings, QPel : No
Format settings, GMC : No warppoints
Format settings, Matrix : Default (MPEG)
Muxing mode : Packed bitstream
Codec ID : XVID
Codec ID/Hint : XviD
Duration : 1h 45mn
Bit rate : 791 Kbps
Width : 624 pixels
Height : 256 pixels
Display aspect ratio : 2.40:1
Frame rate : 25.000 fps
Color space : YUV
Chroma subsampling : 4:2:0
Bit depth : 8 bits
Scan type : Progressive
Compression mode : Lossy
Bits/(Pixel*Frame) : 0.198
Stream size : 596 MiB (85%)
Writing library : XviD 1.2.1 (UTC 2008-12-04)

Audio
ID : 1
Format : MPEG Audio
Format version : Version 1
Format profile : Layer 3
Mode : Joint stereo
Mode extension : MS Stereo
Codec ID : 55
Codec ID/Hint : MP3
Duration : 1h 45mn
Bit rate mode : Constant
Bit rate : 128 Kbps
Channel(s) : 2 channels
Sampling rate : 48.0 KHz
Compression mode : Lossy
Stream size : 96.5 MiB (14%)
Alignment : Aligned on interleaves
Interleave, duration : 40 ms (1.00 video frame)
Interleave, preload duration : 504 ms
Writing library : LAME3.97
Encoding settings : -m j -V 4 -q 2 -lowpass 17 -b 128

Jeux Gratuit
15354131_1854970838071206_1069261547_o.png