Telecharger Oeil pour oeil [DVDRiP] French

(TRUEFRENCH = Vraie voix française)

Qualité BDRiP mkv | TRUEFRENCH

Oeil pour oeil

Oeil pour oeil

Origine du film : Américain
Réalisateur : Steve Carver
Acteurs : Chuck Norris, David Carradine, Barbara Carrera
Genre : Action
Durée : 1h45min
Année de production : 1983
Titre Original : Lone Wolf McQuade
Note spectateurs : Oeil pour oeil

; »>2,9/5 (60)

Oeil pour oeil

Sean Kane est obligé a quitter la police de San Francisco après une descente tragique qui coûte la vie à son équipier. Il décide alors de travailler en solo pour éliminer la gang de trafiquants responsables du massacre…
105588″ style= »display:inline; »>

Oeil pour oeil

Format : x264

Oeil pour oeil

Oeil pour oeil 1983 MULTI.BRRip.x264.AC3-HuSh

(1370 Mo)

Uptobox
Télécharger

Uploaded
Télécharger

TurboBit
Télécharger

Rapidgator
Télécharger

Uplea
Télécharger

1fichier
Télécharger

NFO :

Afficher / Masquer le texte c27c0fa1324699ead2d8533f450f0e13″ class= »text_spoiler » style= »display:none; »>■General

Unique ID : 190763154565826104365860174989067991623 (0x8F83A5ACB2A3EF63BC70CBDE78A6BA47)

Complete name : H:Oeil.Pour.Oeil.1983.MULTI.BRRip.x264.AC3-HuShOeil.Pour.Oeil.1983.MULTI.BRRip.x264.AC3-HuSh.mkv

Format : Matroska

Format version : Version 2

File size : 1.37 GiB

Duration : 1h 47mn

Overall bit rate mode : Variable

Overall bit rate : 1 828 Kbps

Encoded date : UTC 2014-06-28 09:11:10

Writing application : mkvmerge v3.2.0 (‘Beginnings’) built on Feb 12 2010 16:46:17

Writing library : libebml v0.7.9 + libmatroska v0.8.1

Video

ID : 1

Format : AVC

Format/Info : Advanced Video Codec

Format profile : [email protected]

Format settings, CABAC : Yes

Format settings, ReFrames : 8 frames

Codec ID : V_MPEG4/ISO/AVC

Duration : 1h 47mn

Bit rate mode : Variable

Bit rate : 1 442 Kbps

Maximum bit rate : 17.5 Mbps

Width : 720 pixels

Height : 384 pixels

Display aspect ratio : 1.85:1

Original display aspect rat : 1.85:1

Frame rate mode : Constant

Frame rate : 23.976 fps

Color space : YUV

Chroma subsampling : 4:2:0

Bit depth : 8 bits

Scan type : Progressive

Bits/(Pixel*Frame) : 0.218

Stream size : 1.05 GiB (77%)

Writing library : x264 core 140 r2345

Encoding settings : cabac=1 / ref=8 / deblock=1:-1:-1 / analyse=0x3:0x133 / me=umh / subme=9 / psy=1 / psy_rd=1.00:0.00 / mixed_ref=1 / me_range=32 / chroma_me=1 / trellis=2 / 8x8dct=1 / cqm=0 / deadzone=21,11 / fast_pskip=0 / chroma_qp_offset=-2 / threads=6 / lookahead_threads=1 / sliced_threads=0 / nr=0 / decimate=1 / interlaced=0 / bluray_compat=0 / constrained_intra=0 / bframes=3 / b_pyramid=2 / b_adapt=2 / b_bias=0 / direct=3 / weightb=1 / open_gop=0 / weightp=2 / keyint=230 / keyint_min=23 / scenecut=40 / intra_refresh=0 / rc_lookahead=60 / rc=2pass / mbtree=1 / bitrate=1442 / ratetol=1.0 / qcomp=0.60 / qpmin=10 / qpmax=69 / qpstep=4 / cplxblur=20.0 / qblur=0.5 / vbv_maxrate=17500 / vbv_bufsize=17500 / nal_hrd=vbr / filler=0 / ip_ratio=1.40 / aq=1:1.00

Language : English

Default : Yes

Forced : No

Audio #1

ID : 2

Format : AC-3

Format/Info : Audio Coding 3

Mode extension : CM (complete main)

Format settings, Endianness : Big

Codec ID : A_AC3

Duration : 1h 47mn

Bit rate mode : Constant

Bit rate : 192 Kbps

Channel(s) : 1 channel

Channel positions : Front: C

Sampling rate : 48.0 KHz

Compression mode : Lossy

Stream size : 147 MiB (11%)

Language : French

Default : Yes

Forced : No

Audio #2

ID : 3

Format : AC-3

Format/Info : Audio Coding 3

Mode extension : CM (complete main)

Format settings, Endianness : Big

Codec ID : A_AC3

Duration : 1h 47mn

Bit rate mode : Constant

Bit rate : 192 Kbps

Channel(s) : 1 channel

Channel positions : Front: C

Sampling rate : 48.0 KHz

Compression mode : Lossy

Stream size : 147 MiB (11%)

Language : English

Default : No

Forced : No

Text #1

ID : 4

Format : UTF-8

Codec ID : S_TEXT/UTF8

Codec ID/Info : UTF-8 Plain Text

Title : team-hush.org

Language : French

Default : Yes

Forced : No

Text #2

ID : 5

Format : UTF-8

Codec ID : S_TEXT/UTF8

Codec ID/Info : UTF-8 Plain Text

Language : French

Default : No

Forced : No

Jeux Gratuit
15354131_1854970838071206_1069261547_o.png