Telecharger Officier et gentleman [DVDRiP] French

(TRUEFRENCH = Vraie voix française)

BLURAY 720p | TRUEFRENCH

Officier et gentleman

Officier et gentleman

Officier et gentleman

Origine du film : Américain
Réalisateur : Taylor Hackford
Acteurs : Richard Gere, Debra Winger, Louis Gossett Jr.
Genre : Comédie dramatique, Romance
Durée : 2h02min
Date de sortie : 19 janvier 1983
Année de production : 1982
Titre Original : An Officer and a Gentleman
Distribué par : CIC
Note spectateurs : Officier et gentleman

; »>3,4/5 (189)
Bande annonce :

fb29ee324a4e6bf39d081023d6d67e6a

19406598″>Cliquez-ici pour voir la bande annonce fb29ee324a4e6bf39d081023d6d67e6a »> 19406598

fb29ee324a4e6bf39d081023d6d67e6a

Officier et gentleman

Zack Mayo s'engage dans la marine dans le but de changer de vie. Il est d'abord confronté au sergent Foley, puis rencontre Paula… 39275″ style= »display:inline; »>

Qualité : BLURAY 720p
Format : MKV
Langue : Français
Découpé avec : Winrar
Nombre de fichiers : 5 Fichiers
Taille des fichiers : 1000 Mo 473 Mo

[Liens Interchangeables]

An.Officer.and.a.Gentleman.1982.FRENCH.720p.BluRay.x264-ULSHD ( 4473 Mo)

1fichier
Télécharger

Uptobox
Télécharger

Free
Upload en panne

Uploaded
Télécharger

Rapidgator
Télécharger

TurboBit
Télécharger

[ 1 lien Premium – 4,4 Go ]

1fichier Premium
Télécharger

Uptobox Premium
Télécharger

Free Premium
Upload en panne

BayFiles Premium
Télécharger

Uploaded Premium
Télécharger

cloudZer Premium
Télécharger

Rapidgator Premium
Télécharger

TurboBit Premium
Télécharger

NFO :

Afficher / Masquer le texte 71002ad0707ae060a370bdd61b3c3cf8″ class= »text_spoiler » style= »display:none; »>General
Complete name : an.officer.and.a.gentleman.1982.french.720p.bluray.x264-ulshd.mkv
Format : Matroska
Format version : Version 2
File size : 4.37 GiB
Duration : 2h 4mn
Overall bit rate : 5 032 Kbps
Writing application : mkvmerge v4.1.1 ('Bouncin' Back') built on Jul 3 2010 22:54:08
Writing library : libebml v1.0.0 libmatroska v1.0

Video
ID : 1
Format : AVC
Format/Info : Advanced Video Codec
Format profile : [email protected]
Format settings, CABAC : Yes
Format settings, ReFrames : 5 frames
Codec ID : V_MPEG4/ISO/AVC
Duration : 2h 4mn
Bit rate : 4 838 Kbps
Width : 1 280 pixels
Height : 720 pixels
Display aspect ratio : 16:9
Frame rate mode : Constant
Frame rate : 23.976 fps
Color space : YUV
Chroma subsampling : 4:2:0
Bit depth : 8 bits
Scan type : Progressive
Bits/(Pixel*Frame) : 0.219
Stream size : 4.12 GiB (94%)
Writing library : x264 core 130 r2273 b3065e6
Encoding settings : cabac=1 / ref=5 / deblock=1:0:0 / analyse=0x3:0x113 / me=umh / subme=8 / psy=1 / psy_rd=1.00:0.00 / mixed_ref=1 / me_range=16 / chroma_me=1 / trellis=1 / 8x8dct=1 / cqm=0 / deadzone=21,11 / fast_pskip=1 / chroma_qp_offset=-2 / threads=12 / lookahead_threads=2 / sliced_threads=0 / nr=0 / decimate=1 / interlaced=0 / bluray_compat=0 / constrained_intra=0 / bframes=3 / b_pyramid=2 / b_adapt=2 / b_bias=0 / direct=3 / weightb=1 / open_gop=0 / weightp=2 / keyint=240 / keyint_min=24 / scenecut=40 / intra_refresh=0 / rc_lookahead=50 / rc=2pass / mbtree=1 / bitrate=4838 / ratetol=1.0 / qcomp=0.60 / qpmin=0 / qpmax=69 / qpstep=4 / cplxblur=20.0 / qblur=0.5 / ip_ratio=1.40 / aq=1:1.00
Language : English
Default : Yes
Forced : No

Audio
ID : 2
Format : AC-3
Format/Info : Audio Coding 3
Mode extension : CM (complete main)
Format settings, Endianness : Big
Codec ID : A_AC3
Duration : 2h 4mn
Bit rate mode : Constant
Bit rate : 192 Kbps
Channel(s) : 2 channels
Channel positions : Front: L R
Sampling rate : 48.0 KHz
Bit depth : 16 bits
Compression mode : Lossy
Stream size : 171 MiB (4%)
Title : French AC3 640kbps
Language : French
Default : Yes
Forced : No

Jeux Gratuit
15354131_1854970838071206_1069261547_o.png