Telecharger Officier et gentleman [DVDRiP] French

(TRUEFRENCH = Vraie voix française)

Qualité BDRiP mkv | MULTiLANGUES (Avec TRUEFRENCH)

Officier et gentleman

Officier et gentleman

Origine du film : Américain
Réalisateur : Taylor Hackford
Acteurs : Richard Gere, Debra Winger, Louis Gossett Jr.
Genre : Romance, Drame
Durée : 2h2min
Date de sortie : 19 janvier 1983
Année de production : 1982
Titre Original : An Officer and a Gentleman
Distribué par : CIC
Note spectateurs : Officier et gentleman

; »>3,4/5 (233)
Bande annonce :

18d388991ce224a4f7b540741d3b7eb1

19406598″>Cliquez-ici pour voir la bande annonce 18d388991ce224a4f7b540741d3b7eb1″> 19406598

18d388991ce224a4f7b540741d3b7eb1

Officier et gentleman

Zack Mayo s’engage dans la marine dans le but de changer de vie. Il est d’abord confronté au sergent Foley, puis rencontre Paula…
105284″ style= »display:inline; »>

Officier et gentleman

Format : MKV

Officier et gentleman

Officier et gentleman 1982 MULTI.BRRip.x264.AC3-HuSh

(1380 Mo)

Uptobox
Télécharger

Uploaded
Télécharger

TurboBit
Télécharger

Rapidgator
Télécharger

Uplea
Télécharger

1fichier
Télécharger

NFO :

Afficher / Masquer le texte 404dbfe7a9a8129d8869d569581d2416″ class= »text_spoiler » style= »display:none; »>■General

Unique ID : 239974166682035771702736584322364172121 (0xB48957E5BC34B6E7A8A407BCF4BB6759)

Complete name : H:Officier.Et.Gentleman.1982.MULTI.BRRip.x264.AC3-HuShOfficier.Et.Gentleman.1982.MULTI.BRRip.x264.AC3-HuSh.mkv

Format : Matroska

Format version : Version 4 / Version 2

File size : 1.38 GiB

Duration : 2h 4mn

Overall bit rate mode : Variable

Overall bit rate : 1 588 Kbps

Movie name : Officier.Et.Gentleman.1982.MULTI.BRRip.x264.AC3-HuSh

Encoded date : UTC 2013-12-20 10:19:44

Writing application : mkvmerge v6.3.0 (‘You can’t stop me!’) built on Jun 28 2013 20:09:41

Writing library : libebml v1.3.0 + libmatroska v1.4.0

Video

ID : 1

Format : AVC

Format/Info : Advanced Video Codec

Format profile : [email protected]

Format settings, CABAC : Yes

Format settings, ReFrames : 8 frames

Codec ID : V_MPEG4/ISO/AVC

Duration : 2h 4mn

Bit rate mode : Variable

Bit rate : 1 010 Kbps

Maximum bit rate : 17.5 Mbps

Width : 688 pixels

Height : 384 pixels

Display aspect ratio : 16:9

Original display aspect rat : 16:9

Frame rate mode : Constant

Frame rate : 23.976 fps

Color space : YUV

Chroma subsampling : 4:2:0

Bit depth : 8 bits

Scan type : Progressive

Bits/(Pixel*Frame) : 0.159

Stream size : 872 MiB (62%)

Title : Video

Writing library : x264 core 132 r2334

Encoding settings : cabac=1 / ref=8 / deblock=1:-1:-1 / analyse=0x3:0x133 / me=umh / subme=9 / psy=1 / psy_rd=1.00:0.00 / mixed_ref=1 / me_range=32 / chroma_me=1 / trellis=2 / 8x8dct=1 / cqm=0 / deadzone=21,11 / fast_pskip=0 / chroma_qp_offset=-2 / threads=6 / lookahead_threads=1 / sliced_threads=0 / nr=0 / decimate=1 / interlaced=0 / bluray_compat=0 / constrained_intra=0 / bframes=6 / b_pyramid=2 / b_adapt=2 / b_bias=0 / direct=3 / weightb=1 / open_gop=0 / weightp=2 / keyint=230 / keyint_min=23 / scenecut=40 / intra_refresh=0 / rc_lookahead=60 / rc=2pass / mbtree=1 / bitrate=1010 / ratetol=1.0 / qcomp=0.60 / qpmin=10 / qpmax=69 / qpstep=4 / cplxblur=20.0 / qblur=0.5 / vbv_maxrate=17500 / vbv_bufsize=17500 / nal_hrd=vbr / ip_ratio=1.40 / aq=1:1.00

Default : Yes

Forced : No

Audio #1

ID : 2

Format : AC-3

Format/Info : Audio Coding 3

Mode extension : CM (complete main)

Format settings, Endianness : Big

Codec ID : A_AC3

Duration : 2h 4mn

Bit rate mode : Constant

Bit rate : 192 Kbps

Channel(s) : 2 channels

Channel positions : Front: L R

Sampling rate : 48.0 KHz

Compression mode : Lossy

Stream size : 171 MiB (12%)

Title : Franτais (Stereo AC3 @ 192 Kbps)

Language : French

Default : Yes

Forced : No

Audio #2

ID : 3

Format : AC-3

Format/Info : Audio Coding 3

Mode extension : CM (complete main)

Format settings, Endianness : Big

Codec ID : A_AC3

Duration : 2h 4mn

Bit rate mode : Constant

Bit rate : 384 Kbps

Channel(s) : 6 channels

Channel positions : Front: L C R, Side: L R, LFE

Sampling rate : 48.0 KHz

Compression mode : Lossy

Stream size : 341 MiB (24%)

Title : Anglais (5.1 AC3 @ 384 Kbps)

Language : English

Default : No

Forced : No

Text #1

ID : 4

Format : UTF-8

Codec ID : S_TEXT/UTF8

Codec ID/Info : UTF-8 Plain Text

Title : Franτais

Language : French

Default : No

Forced : No

Text #2

ID : 5

Format : UTF-8

Codec ID : S_TEXT/UTF8

Codec ID/Info : UTF-8 Plain Text

Title : Franτais forcés

Language : French

Default : Yes

Forced : Yes