Télécharger Old Boy French

Qualité BDRiP | FRENCH

Old Boy

Old Boy

Old Boy

Origine du film : Sud-Coréen
Réalisateur : Park Chan-wook
Acteurs : Min-sik Choi, Ji-tae Yu, Hye-Jeong Kang
Genre : Thriller, Drame
Durée : 1h 59min
Date de sortie : 29 septembre 2004
Année de production : 2003
Distribué par : Bac Films
Note presse : Old Boy 4,0/5
Note spectateurs : Old Boy 4/5 (13591)
Bande annonce :

700f770a9e83ff9e5fa0afa62edda2d6

18369111″>Cliquez-ici pour voir la bande annonce 700f770a9e83ff9e5fa0afa62edda2d6″> 18369111

700f770a9e83ff9e5fa0afa62edda2d6

Old Boy

A la fin des années 80, Oh Dae-Soo, père de famille sans histoire, est enlevé un jour devant chez lui. Séquéstré pendant plusieurs années dans une cellule privée, son seul lien avec l'extérieur est une télévision. Par le biais de cette télévision, il apprend le meutre de sa femme, meurtre dont il est le principal suspect. Au désespoir d'être séquestré sans raison apparente succède alors chez le héros une rage intérieure vengeresse qui lui permet de survivre. Il est relâché 15 ans plus tard, toujours sans explication. Oh Dae-Soo est alors contacté par celui qui semble être le responsable de ses malheurs, qui lui propose de découvrir qui l'a enlevé et pourquoi. Le cauchemar continue pour le héros.

Nom de la release : Old.Boy.2003.FRENCH.BRRiP.XviD-MasterTuX 12327″ style= »display:inline; »>

Qualité : BDRiP
Format : XviD
Langue : Français
Taille totale : 700 Mo

TurboBit.net
Télécharger

Rapidgator.net
Upload en cour…

NFO :

Afficher / Masquer le texte 0aa1019a16b90d1bde4177536af2d001″ class= »text_spoiler » style= »display:none; »>Complete name : Old.Boy.2003.FRENCH.BRRiP.XviD-MasterTuX.avi
Format : AVI
Format/Info : Audio Video Interleave
File size : 708 MiB
Duration : 1h 57mn
Overall bit rate : 842 Kbps
Source : 1080p FHD

Video
ID : 0
Format : MPEG-4 Visual
Format profile : Advanced [email protected]
Format settings, BVOP : 2
Format settings, QPel : No
Format settings, GMC : No warppoints
Format settings, Matrix : Default (H.263)
Codec ID : XVID
Codec ID/Hint : XviD
Duration : 1h 57mn
Bit rate : 701 Kbps
Width : 640 pixels
Height : 272 pixels
Display aspect ratio : 2.35:1
Frame rate : 23.976 fps
Color space : YUV
Chroma subsampling : 4:2:0
Bit depth : 8 bits
Scan type : Progressive
Compression mode : Lossy
Bits/(Pixel*Frame) : 0.168
Stream size : 590 MiB (83%)
Writing library : XviD 1.2.1 (UTC 2008-12-04)

Audio
ID : 1
Format : MPEG Audio
Format version : Version 1
Format profile : Layer 3
Codec ID : 55
Codec ID/Hint : MP3
Duration : 1h 57mn
Bit rate mode : Constant
Bit rate : 128 Kbps
Channel(s) : 2 channels
Sampling rate : 48.0 KHz
Compression mode : Lossy
Stream size : 108 MiB (15%)
Alignment : Split accross interleaves
Interleave, duration : 24 ms (0.58 video frame)
Writing library : LAME3.98.4

Jeux Gratuit
15354131_1854970838071206_1069261547_o.png