Télécharger Oliver's Story

Qualité DVDRiP mkv | MULTiLANGUES

Oliver's Story

Oliver's Story

Origine du film : Américain
Réalisateur : John Korty
Acteurs : Ryan O’Neal, Candice Bergen, Nicola Pagett
Genre : Drame, Romance
Durée : 1h31min
Année de production : 1978
Note spectateurs : Oliver's Story 2,8/5 (10)

Oliver's Story

Après la mort de Jenny, foudroyée par une leucémie, Oliver erre seul avec ses souvenirs. L’histoire d’amour passionnée qu’ils ont vécu ensemble ne lui permet pas d’oublier celle qui fut la femme de sa vie. Mais il rencontre Marcie, une formidable jeune femme qui l’aide à affronter de nouveau la vie…
97548″ style= »display:inline; »>

Oliver's Story

Format : MKV

Oliver's Story

Oliver’s Story 1978 MULTI.DVDRip.x264.AC3-HuSh

(1370 Mo)

Uptobox
Télécharger

Uploaded
Télécharger

TurboBit
Télécharger

Rapidgator
Télécharger

Uplea
Télécharger

1fichier
Télécharger

NFO :

Afficher / Masquer le texte f4b9f5564b4dac82b1814501725ebd70″ class= »text_spoiler » style= »display:none; »>■General

Unique ID : 243181244944980417749984930291054760151 (0xB6F301105234C4498317439CD50B50D7)

Complete name : F:TorrentOliver.S.Story.1978.MULTI.DVDRip.x264.AC3-HuShOliver.S.Story.1978.MULTI.DVDRip.x264.AC3-HuSh.mkv

Format : Matroska

Format version : Version 4 / Version 2

File size : 1.37 GiB

Duration : 1h 26mn

Overall bit rate mode : Variable

Overall bit rate : 2 258 Kbps

Movie name : Oliver.S.Story.1978.MULTI.DVDRip.x264.AC3-HuSh

Encoded date : UTC 2014-11-24 14:39:12

Writing application : mkvmerge v6.3.0 (‘You can’t stop me!’) built on Jun 28 2013 20:09:41

Writing library : libebml v1.3.0 + libmatroska v1.4.0

Video

ID : 1

Format : AVC

Format/Info : Advanced Video Codec

Format profile : [email protected]

Format settings, CABAC : Yes

Format settings, ReFrames : 9 frames

Codec ID : V_MPEG4/ISO/AVC

Duration : 1h 26mn

Bit rate mode : Variable

Bit rate : 1 872 Kbps

Maximum bit rate : 17.5 Mbps

Width : 716 pixels

Height : 576 pixels

Display aspect ratio : 16:9

Original display aspect rat : 16:9

Frame rate mode : Constant

Frame rate : 25.000 fps

Color space : YUV

Chroma subsampling : 4:2:0

Bit depth : 8 bits

Scan type : Progressive

Bits/(Pixel*Frame) : 0.182

Stream size : 1.11 GiB (81%)

Title : Video

Writing library : x264 core 135 r2345

Encoding settings : cabac=1 / ref=9 / deblock=1:-1:-1 / analyse=0x3:0x133 / me=umh / subme=10 / psy=1 / psy_rd=1.00:0.10 / mixed_ref=1 / me_range=32 / chroma_me=1 / trellis=2 / 8x8dct=1 / cqm=0 / deadzone=21,11 / fast_pskip=0 / chroma_qp_offset=-3 / threads=6 / lookahead_threads=1 / sliced_threads=0 / nr=0 / decimate=1 / interlaced=0 / bluray_compat=0 / constrained_intra=0 / bframes=8 / b_pyramid=2 / b_adapt=2 / b_bias=0 / direct=3 / weightb=1 / open_gop=0 / weightp=2 / keyint=250 / keyint_min=25 / scenecut=40 / intra_refresh=0 / rc_lookahead=50 / rc=2pass / mbtree=1 / bitrate=1872 / ratetol=1.0 / qcomp=0.60 / qpmin=10 / qpmax=69 / qpstep=4 / cplxblur=20.0 / qblur=0.5 / vbv_maxrate=17500 / vbv_bufsize=17500 / nal_hrd=vbr / ip_ratio=1.40 / aq=1:1.00

Default : Yes

Forced : No

Audio #1

ID : 2

Format : AC-3

Format/Info : Audio Coding 3

Mode extension : CM (complete main)

Format settings, Endianness : Big

Codec ID : A_AC3

Duration : 1h 26mn

Bit rate mode : Constant

Bit rate : 192 Kbps

Channel(s) : 2 channels

Channel positions : Front: L R

Sampling rate : 48.0 KHz

Compression mode : Lossy

Stream size : 119 MiB (9%)

Title : Franτais (Stereo AC3 @ 192 Kbps)

Language : French

Default : Yes

Forced : No

Audio #2

ID : 3

Format : AC-3

Format/Info : Audio Coding 3

Mode extension : CM (complete main)

Format settings, Endianness : Big

Codec ID : A_AC3

Duration : 1h 26mn

Bit rate mode : Constant

Bit rate : 192 Kbps

Channel(s) : 2 channels

Channel positions : Front: L R

Sampling rate : 48.0 KHz

Compression mode : Lossy

Stream size : 119 MiB (9%)

Title : Anglais (Stereo AC3 @ 192 Kbps)

Language : English

Default : No

Forced : No

Text #1

ID : 4

Format : UTF-8

Codec ID : S_TEXT/UTF8

Codec ID/Info : UTF-8 Plain Text

Title : Franτais

Language : French

Default : No

Forced : No

Text #2

ID : 5

Format : UTF-8

Codec ID : S_TEXT/UTF8

Codec ID/Info : UTF-8 Plain Text

Default : Yes

Forced : Yes

Jeux Gratuit
15354131_1854970838071206_1069261547_o.png