Telecharger Ordure ! [BLURAY 720p] French

(TRUEFRENCH = Vraie voix française)

BLURAY 720p | TRUEFRENCH

Ordure !

Ordure !

Ordure !

Origine du film : Britannique
Réalisateur : Jon S. Baird
Acteurs : James McAvoy, Jamie Bell, Eddie Marsan
Genre : Comédie dramatique, Policier
Durée : 1h37min
Année de production : 2013
Titre Original : Filth
Distribué par : Metropolitan FilmExport
Note spectateurs : Ordure !

; »>3,9/5 (188)
Bande annonce :

3757f61edaf93e157d3b29baccdf8d53

19544201″>Cliquez-ici pour voir la bande annonce 3757f61edaf93e157d3b29baccdf8d53″> 19544201

3757f61edaf93e157d3b29baccdf8d53

Ordure !

Le sergent-détective Bruce Robertson veut une promotion et son patron veut des résultats.Pas de problème pour Bruce.Quand un meurtre est perpétué, il prend le contrôle de la situation.Et quand il résoudra l'affaire, il gagnera la promotion.Mais la vie n'est pas aussi simple. Bruce est-il l'homme de la situation ?Les réponses vont être tragiques, hilarantes et outrageantes.
59490″ style= »display:inline; »>

Ordure !

Qualité : BLURAY 720p
Format : MKV
Langue : Français
Découpé avec : Winrar
Nombre de fichiers : 4 Fichiers
Taille des fichiers : 1000 Mo + 131 Mo

Ordure !

[4 Liens Interchangeables : 3 x 1000 Mo + 1 x 131 Mo]

Filth 2013 FRENCH 720p BluRay x264 AC3-CNF30 ( 3131 Mo)

Uptobox
Télécharger

Uplea
Télécharger

1fichier
Télécharger

Uploaded
Télécharger

Rapidgator
Télécharger

TurboBit
Télécharger

[1 Lien PREMIUM : 1 x 3.06 GB]

Uptobox
Télécharger

Uplea
Télécharger

1fichier
Télécharger

Uploaded
Télécharger

Rapidgator
Télécharger

TurboBit
Télécharger

NFO :

Afficher / Masquer le texte d11cfc9fb6d42222f29699e3f2462bc0″ class= »text_spoiler » style= »display:none; »>Format : Matroska
Format version : Version 4 / Version 2
File size : 3.06 GiB
Duration : 1h 37mn
Overall bit rate : 4 493 Kbps
Encoded date : UTC 2014-09-25 00:39:59
Writing application : mkvmerge v6.7.0 (‘Back to the Ground’) 64bit built on Jan 8 2014 15:10:52
Writing library : libebml v1.3.0 + libmatroska v1.4.1

Video
ID : 1
Format : AVC
Format/Info : Advanced Video Codec
Format profile : [email protected]
Format settings, CABAC : Yes
Format settings, ReFrames : 5 frames
Codec ID : V_MPEG4/ISO/AVC
Duration : 1h 37mn
Bit rate : 4 049 Kbps
Width : 1 280 pixels
Height : 544 pixels
Display aspect ratio : 2.35:1
Frame rate : 24.000 fps
Color space : YUV
Chroma subsampling : 4:2:0
Bit depth : 8 bits
Scan type : Progressive
Bits/(Pixel*Frame) : 0.242
Stream size : 2.69 GiB (88%)
Writing library : x264 core 142 r2389 956c8d8
Encoding settings : cabac=1 / ref=5 / deblock=1:-3:-3 / analyse=0x3:0x113 / me=umh / subme=8 / psy=1 / psy_rd=1.00:0.00 / mixed_ref=1 / me_range=16 / chroma_me=1 / trellis=1 / 8x8dct=1 / cqm=0 / deadzone=21,11 / fast_pskip=1 / chroma_qp_offset=-2 / threads=18 / lookahead_threads=3 / sliced_threads=0 / nr=0 / decimate=1 / interlaced=0 / bluray_compat=0 / constrained_intra=0 / bframes=3 / b_pyramid=2 / b_adapt=2 / b_bias=0 / direct=3 / weightb=1 / open_gop=0 / weightp=2 / keyint=240 / keyint_min=24 / scenecut=40 / intra_refresh=0 / rc_lookahead=50 / rc=2pass / mbtree=1 / bitrate=4049 / ratetol=1.0 / qcomp=0.60 / qpmin=0 / qpmax=69 / qpstep=4 / cplxblur=20.0 / qblur=0.5 / ip_ratio=1.40 / aq=1:1.00
Language : English
Default : Yes
Forced : No

Audio
ID : 2
Format : AC-3
Format/Info : Audio Coding 3
Mode extension : CM (complete main)
Format settings, Endianness : Big
Codec ID : A_AC3
Duration : 1h 37mn
Bit rate mode : Constant
Bit rate : 448 Kbps
Channel(s) : 6 channels
Channel positions : Front: L C R, Side: L R, LFE
Sampling rate : 48.0 KHz
Bit depth : 16 bits
Compression mode : Lossy
Delay relative to video : 12ms
Stream size : 312 MiB (10%)
Title : French VFI
Language : French
Default : Yes
Forced : No

Jeux Gratuit
15354131_1854970838071206_1069261547_o.png