Telecharger Où est passée mon idole ? [DVDRiP] French

Qualité DVDRiP mkv | MULTiLANGUES

Où est passée mon idole ?

Où est passée mon idole ?

Origine du film : Américain
Réalisateur : Richard Benjamin
Acteurs : Peter O’Toole, Mark Linn-Baker, Jessica Harper
Genre : Comédie
Durée : 1h32min
Année de production : 1982
Titre Original : My Favorite Year
Note spectateurs : Où est passée mon idole ?

; »>3,1/5 (2)

Où est passée mon idole ?

Benjy Stone est un jeune scénariste pour le show à grand succès animé par King Kaiser. On est dans les années 50 à New York et l’Amérique est très friande de ces émissions diffusées en direct. Apprenant que son idole, Alan Swann, fait partie des prochains invités du show, Benjy décide de tout prendre en main pour préparer le grand retour de son acteur préféré. Mais la star déchue a sombré dans l’alcoolisme, et les ennuis vont crescendo au studio : King Kaiser se retrouve menacé par une personne qu’il a carricaturé. L’émission à venir est donc celle de tous les dangers.
105373″ style= »display:inline; »>

Où est passée mon idole ?

Format : MKV

Où est passée mon idole ?

Ou est passée mon idole 1982 MULTI.DVDRip.x264.AC3-HuSh

(1370 Mo)

Uptobox
Télécharger

Uploaded
Télécharger

TurboBit
Télécharger

Rapidgator
Télécharger

Uplea
Télécharger

1fichier
Télécharger

NFO :

Afficher / Masquer le texte bc821d26c93709b4ccc68fe453b6328e » class= »text_spoiler » style= »display:none; »>■General

Unique ID : 177203108439903001067132279005356432000 (0x855013C882938D7CB060BE4E624F1A80)

Complete name : H:Ou.Est.Passee.Mon.Idole.1982.MULTI.DVDRip.x264.AC3-HuShOu.Est.Passee.Mon.Idole.1982.MULTI.DVDRip.x264.AC3-HuSh.mkv

Format : Matroska

Format version : Version 4 / Version 2

File size : 1.37 GiB

Duration : 1h 32mn

Overall bit rate mode : Variable

Overall bit rate : 2 122 Kbps

Movie name : Ou.Est.Passee.Mon.Idole.1982.MULTI.DVDRip.x264.AC3-HuSh

Encoded date : UTC 2014-07-08 14:40:08

Writing application : mkvmerge v6.3.0 (‘You can’t stop me!’) built on Jun 28 2013 20:09:41

Writing library : libebml v1.3.0 + libmatroska v1.4.0

Video

ID : 1

Format : AVC

Format/Info : Advanced Video Codec

Format profile : [email protected]

Format settings, CABAC : Yes

Format settings, ReFrames : 9 frames

Codec ID : V_MPEG4/ISO/AVC

Duration : 1h 32mn

Bit rate mode : Variable

Bit rate : 1 736 Kbps

Maximum bit rate : 17.5 Mbps

Width : 720 pixels

Height : 480 pixels

Display aspect ratio : 16:9

Frame rate mode : Constant

Frame rate : 29.970 fps

Standard : NTSC

Color space : YUV

Chroma subsampling : 4:2:0

Bit depth : 8 bits

Scan type : Progressive

Bits/(Pixel*Frame) : 0.168

Stream size : 1.09 GiB (80%)

Title : Video

Writing library : x264 core 135 r2345

Encoding settings : cabac=1 / ref=9 / deblock=1:-1:-1 / analyse=0x3:0x133 / me=umh / subme=10 / psy=1 / psy_rd=1.00:0.10 / mixed_ref=1 / me_range=32 / chroma_me=1 / trellis=2 / 8x8dct=1 / cqm=0 / deadzone=21,11 / fast_pskip=0 / chroma_qp_offset=-3 / threads=6 / lookahead_threads=1 / sliced_threads=0 / nr=0 / decimate=1 / interlaced=0 / bluray_compat=0 / constrained_intra=0 / bframes=8 / b_pyramid=2 / b_adapt=2 / b_bias=0 / direct=3 / weightb=1 / open_gop=0 / weightp=2 / keyint=290 / keyint_min=29 / scenecut=40 / intra_refresh=0 / rc_lookahead=50 / rc=2pass / mbtree=1 / bitrate=1736 / ratetol=1.0 / qcomp=0.60 / qpmin=10 / qpmax=69 / qpstep=4 / cplxblur=20.0 / qblur=0.5 / vbv_maxrate=17500 / vbv_bufsize=17500 / nal_hrd=vbr / ip_ratio=1.40 / aq=1:1.00

Default : Yes

Forced : No

Audio #1

ID : 2

Format : AC-3

Format/Info : Audio Coding 3

Mode extension : CM (complete main)

Format settings, Endianness : Big

Codec ID : A_AC3

Duration : 1h 32mn

Bit rate mode : Constant

Bit rate : 192 Kbps

Channel(s) : 1 channel

Channel positions : Front: C

Sampling rate : 48.0 KHz

Compression mode : Lossy

Stream size : 127 MiB (9%)

Title : Franτais (Mono AC3 @ 192 Kbps)

Language : French

Default : Yes

Forced : No

Audio #2

ID : 3

Format : AC-3

Format/Info : Audio Coding 3

Mode extension : CM (complete main)

Format settings, Endianness : Big

Codec ID : A_AC3

Duration : 1h 32mn

Bit rate mode : Constant

Bit rate : 192 Kbps

Channel(s) : 1 channel

Channel positions : Front: C

Sampling rate : 48.0 KHz

Compression mode : Lossy

Stream size : 127 MiB (9%)

Title : Anglais (Mono AC3 @ 192 Kbps)

Language : English

Default : No

Forced : No

Text #1

ID : 4

Format : UTF-8

Codec ID : S_TEXT/UTF8

Codec ID/Info : UTF-8 Plain Text

Title : Franτais

Language : French

Default : No

Forced : No

Text #2

ID : 5

Format : UTF-8

Codec ID : S_TEXT/UTF8

Codec ID/Info : UTF-8 Plain Text

Title : Franτais forcés

Language : French

Default : Yes

Forced : Yes