Telecharger Palace pour chiens [BLURAY 720p] French

BLURAY 720p | FRENCH | AC3

Palace pour chiens

Palace pour chiens

Palace pour chiens

Origine du film : Américain, allemand
Réalisateur : Thor Freudenthal
Acteurs : Emma Roberts, Jake T. Austin, Lisa Kudrow
Genre : Comédie
Durée : 1h 40min
Date de sortie : 18 février 2009
Année de production : 2009
Titre Original : Hotel for Dogs
Distribué par : Paramount Pictures France
Note presse : Palace pour chiens 2,0/5
Note spectateurs : Palace pour chiens 2,9/5 (284)
Bande annonce :

6184c6e688a0c9cbad32c4eb378c9198

18832940″>Cliquez-ici pour voir la bande annonce 6184c6e688a0c9cbad32c4eb378c9198″> 18832940

6184c6e688a0c9cbad32c4eb378c9198

Palace pour chiens

Chez Andi et son petit frère Bruce, les animaux sont strictement interdits. Mais pour Vendredi, l'adorable chien qu'ils nourrissent en secret, les deux enfants sont prêts à prendre tous les risques. Ils finissent par lui trouver un refuge idéal dans un immense hôtel abandonné que Bruce transforme spécialement grâce à son génie du bricolage.Dans ce qui est devenu un incroyable paradis pour chiens, Vendredi est bientôt rejoint par d'innombrables copains de tous poils, au point que leurs aboiements alertent les voisins… et la fourrière, qui s'explique mal la curieuse disparition de tous les chiens errants. Andi et Bruce vont devoir faire appel à leurs amis et à toute leur imagination pour empêcher que le secret du palace ne soit découvert…

Nom de la release : Hotel.For.Dogs.FRENCH.720p.BluRay.x264-ForceBleue 31870″ style= »display:inline; »>

Qualité : BLURAY 720p
Format : MKV
Langue : Français
Découpé avec : Winrar
Nombre de fichiers : 5 Fichiers
Taille des fichiers : 1000 Mo 478 Mo
Taille totale : 4478 Mo

[Liens Interchangeables : 4 Liens de 1000 Mo 1 Lien de 478]

1fichier
Télécharger

Uptobox
Télécharger

Free
Télécharger

Uploaded
Télécharger

Rapidgator
Télécharger

TurboBit
Télécharger

[1 Lien Premium de 4.37 GB]

1fichier
Télécharger

Uptobox
Télécharger

Uploaded
Télécharger

TurboBit
Télécharger

NFO :

Afficher / Masquer le texte b4690bfaad16eaca6c1cf8bfd31b0134″ class= »text_spoiler » style= »display:none; »>
Video
ID : 1
Format : AVC
Format/Info : Advanced Video Codec
Format profile : [email protected]
Format settings, CABAC : Yes
Format settings, ReFrames : 5 frames
Codec ID : V_MPEG4/ISO/AVC
Duration : 1h 39mn
Bit rate : 5 619 Kbps
Width : 1 280 pixels
Height : 720 pixels
Display aspect ratio : 16:9
Frame rate mode : Constant
Frame rate : 23.976 fps
Color space : YUV
Chroma subsampling : 4:2:0
Bit depth : 8 bits
Scan type : Progressive
Bits/(Pixel*Frame) : 0.254
Stream size : 3.84 GiB (88%)
Writing library : x264 core 67 r1139 1024283
Encoding settings : cabac=1 / ref=5 / deblock=1:0:0 / analyse=0x3:0x113 / me=umh / subme=7 / psy_rd=1.0:0.0 / mixed_ref=1 / me_range=16 / chroma_me=1 / trellis=1 / 8x8dct=1 / cqm=0 / deadzone=21,11 / chroma_qp_offset=-2 / threads=12 / nr=0 / decimate=1 / mbaff=0 / bframes=3 / b_pyramid=1 / b_adapt=1 / b_bias=0 / direct=3 / wpredb=1 / keyint=250 / keyint_min=25 / scenecut=40 / rc=2pass / bitrate=5619 / ratetol=1.0 / qcomp=0.60 / qpmin=10 / qpmax=51 / qpstep=4 / cplxblur=20.0 / qblur=0.5 / ip_ratio=1.40 / pb_ratio=1.30 / aq=1:1.00
Language : English
Default : Yes
Forced : No

Audio
ID : 2
Format : AC-3
Format/Info : Audio Coding 3
Mode extension : CM (complete main)
Format settings, Endianness : Big
Codec ID : A_AC3
Duration : 1h 39mn
Bit rate mode : Constant
Bit rate : 640 Kbps
Channel(s) : 6 channels
Channel positions : Front: L C R, Side: L R, LFE
Sampling rate : 48.0 KHz
Bit depth : 16 bits
Compression mode : Lossy
Stream size : 458 MiB (10%)
Title : 5.1
Language : French
Default : Yes
Forced : No