Telecharger Panic Button [BLURAY 720p] French

(TRUEFRENCH = Vraie voix française)

(AC3 = Dolby Digital 5.1)

BLURAY 720p | TRUEFRENCH | AC3

Panic Button

Panic Button

Panic Button

Origine du film : Britannique
Réalisateur : Chris Crow
Acteurs : Scarlett Alice Johnson, Michael Jibson, Jack Gordon
Genre : Epouvante-horreur, Thriller
Durée : 1h 32min
Année de production : 2011
Note spectateurs : Panic Button 2,7/5 (45)
Bande annonce :

0f58ea82335e8264f5bd1ae5a3af9e5e

19535999″>Cliquez-ici pour voir la bande annonce 0f58ea82335e8264f5bd1ae5a3af9e5e »> 19535999

0f58ea82335e8264f5bd1ae5a3af9e5e

Panic Button

Quatre jeunes gens ont gagné un voyage grâce à leur réseau social préféré. À bord de l’avion privé qui les emmène à New York, ils sont invités à participer à une animation en vol : une nouvelle expérience de jeu en ligne. Mais ce n’est pas un jeu ordinaire. Piégés à 30 000 pieds, ils devront jouer pour sauver leurs vies et celles de leurs proches. Ils vont découvrir à leurs dépens que mettre sa vie en ligne peut avoir de terribles conséquences…

Nom de la release : Panic.Button.2011.FRENCH.720p.Bluray.AC3.x264-ARTEFAC 31217″ style= »display:inline; »>

Qualité : BLURAY 720p
Format : MKV
Langue : Français
Découpé avec : Winrar
Nombre de fichiers : 4 Fichiers
Taille des fichiers : 1000 Mo 738 Mo
Taille totale : 3738 Mo

[4 Liens Interchangeables : 3 x 1000 Mo 1 x 738]

1fichier
Télécharger

Uptobox
Télécharger

Free
Télécharger

Uploaded
Télécharger

Rapidgator
Télécharger

TurboBit
Télécharger

[1 Lien PREMIUM]

1fichier
Télécharger

Uptobox
Télécharger

Uploaded
Télécharger

TurboBit
Télécharger

NFO :

Afficher / Masquer le texte 9d1060f4055a11e3671739dbd6cd0eb7″ class= »text_spoiler » style= »display:none; »>General
Format : Matroska
Format version : Version 4 / Version 2
File size : 3.65 GiB
Duration : 1h 35mn
Overall bit rate : 5 463 Kbps
Encoded date : UTC 2013-07-15 14:48:00
Writing application : mkvmerge v6.3.0 ('You can't stop me!') built on Jun 28 2013 20:09:41
Writing library : libebml v1.3.0 libmatroska v1.4.0

Video
ID : 1
Format : AVC
Format/Info : Advanced Video Codec
Format profile : [email protected]
Format settings, CABAC : Yes
Format settings, ReFrames : 12 frames
Codec ID : V_MPEG4/ISO/AVC
Duration : 1h 35mn
Bit rate : 5 030 Kbps
Width : 1 280 pixels
Height : 536 pixels
Display aspect ratio : 2.40:1
Frame rate mode : Constant
Frame rate : 23.976 fps
Color space : YUV
Chroma subsampling : 4:2:0
Bit depth : 8 bits
Scan type : Progressive
Bits/(Pixel*Frame) : 0.306
Stream size : 3.28 GiB (90%)
Writing library : x264 core 119 r2106 07efeb4
Encoding settings : cabac=1 / ref=12 / deblock=1:-3:-3 / analyse=0x3:0x133 / me=umh / subme=10 / psy=1 / psy_rd=1.00:0.10 / mixed_ref=1 / me_range=48 / chroma_me=1 / trellis=2 / 8x8dct=1 / cqm=0 / deadzone=21,11 / fast_pskip=0 / chroma_qp_offset=-3 / threads=12 / sliced_threads=0 / nr=0 / decimate=0 / interlaced=0 / bluray_compat=0 / constrained_intra=0 / bframes=6 / b_pyramid=2 / b_adapt=2 / b_bias=0 / direct=3 / weightb=1 / open_gop=0 / weightp=2 / keyint=360 / keyint_min=2 / scenecut=40 / intra_refresh=0 / rc_lookahead=60 / rc=2pass / mbtree=1 / bitrate=5030 / ratetol=1.0 / qcomp=0.70 / qpmin=0 / qpmax=69 / qpstep=4 / cplxblur=20.0 / qblur=0.5 / vbv_maxrate=50000 / vbv_bufsize=30000 / nal_hrd=none / ip_ratio=1.40 / aq=2:1.00
Default : No
Forced : No

Audio
ID : 2
Format : AC-3
Format/Info : Audio Coding 3
Mode extension : CM (complete main)
Format settings, Endianness : Big
Codec ID : A_AC3
Duration : 1h 35mn
Bit rate mode : Constant
Bit rate : 448 Kbps
Channel(s) : 6 channels
Channel positions : Front: L C R, Side: L R, LFE
Sampling rate : 48.0 KHz
Bit depth : 16 bits
Compression mode : Lossy
Delay relative to video : 6s 250ms
Stream size : 307 MiB (8%)
Title : French
Default : Yes
Forced : No