Telecharger Paranoiak [BLURAY 720p] French

BLURAY 720p | FRENCH

Paranoiak

Paranoiak

Paranoiak

Origine du film : Américain
Réalisateur : D.J. Caruso
Acteurs : Shia LaBeouf, Carrie-Anne Moss, David Morse
Genre : Thriller
Durée : 1h45min
Date de sortie : 22 août 2007
Année de production : 2007
Titre Original : Disturbia
Distribué par : Paramount Pictures France
Note presse : Paranoiak 2,2/5
Note spectateurs : Paranoiak

; »>3,6/5 (7 284)
Bande annonce :

68142b6653d72cc111dcc2b7b4b74455

18722552″>Cliquez-ici pour voir la bande annonce 68142b6653d72cc111dcc2b7b4b74455″> 18722552

68142b6653d72cc111dcc2b7b4b74455

Paranoiak

Kale, 17 ans, habite une de ces banlieues paradisiaques où il ne se passe jamais rien, jusqu'au jour où… Seul chez lui, maître de son temps, ses journées se passent à surfer sur le web, à regarder la télé, à jouer sur sa console, à se gaver de pizzas, à reluquer en douce la fille canon qui vient d'emménager dans la maison voisine.Une vie de rêve ? Pas tout à fait… Car Kale n'a pas le droit de sortir de chez lui. Placé sous contrôle judiciaire à la suite d'une algarade, il doit purger sa peine à domicile, et trouve chaque jour plus étouffante cette contrainte. Son seul exutoire : épier ses voisins à la jumelle, observer leurs habitudes, leurs déplacements, leurs incongruités, tenter d'en déduire leurs petits et leurs grands secrets. Et Kate, jamais à court d'imagination, prend à ce petit jeu un plaisir considérable. Mais le jeu prend soudain une tournure inquiétante, lorsque Kale et sa nouvelle copine découvrent qu'un de leurs voisins, l'énigmatique Mr. Turner, pourrait bien être… un tueur en série…
61906″ style= »display:inline; »>

Paranoiak

Qualité : BLURAY 720p
Format : MKV
Langue : Français
Sous-titre : Français
Découpé avec : Winrar
Nombre de fichiers : 5 Fichiers
Taille des fichiers : 1000 Mo + 360 Mo

Paranoiak

[Liens Interchangeables]

Disturbia.2007.FRENCH.720p.BluRay.x264-HDCHINA ( 4360 Mo)

Uptobox
Télécharger

Uplea
Télécharger

1fichier
Télécharger

Uploaded
Télécharger

Rapidgator
Télécharger

TurboBit
Télécharger

[Lien Premium]

Uptobox
Télécharger

Uplea
Télécharger

1fichier
Télécharger

Uploaded
Télécharger

TurboBit
Télécharger

NFO :

Afficher / Masquer le texte 5c56bfe87f87fd65651af21c67f0c59d » class= »text_spoiler » style= »display:none; »>Video
ID : 1
Format : AVC
Format/Info : Advanced Video Codec
Format profile : [email protected]
Format settings, CABAC : Yes
Format settings, ReFrames : 9 frames
Codec ID : V_MPEG4/ISO/AVC
Duration : 1h 44mn
Bit rate : 5 330 Kbps
Width : 1 280 pixels
Height : 720 pixels
Display aspect ratio : 16:9
Frame rate : 23.976 fps
Color space : YUV
Chroma subsampling : 4:2:0
Bit depth : 8 bits
Scan type : Progressive
Bits/(Pixel*Frame) : 0.241
Stream size : 3.81 GiB (87%)
Writing library : x264 core 125 r2200 999b753
Encoding settings : cabac=1 / ref=9 / deblock=1:-3:-3 / analyse=0x3:0x133 / me=umh / subme=11 / psy=1 / psy_rd=1.00:0.10 / mixed_ref=1 / me_range=16 / chroma_me=1 / trellis=2 / 8x8dct=1 / cqm=0 / deadzone=21,11 / fast_pskip=0 / chroma_qp_offset=-3 / threads=6 / lookahead_threads=1 / sliced_threads=0 / nr=0 / decimate=0 / interlaced=0 / bluray_compat=0 / constrained_intra=0 / bframes=8 / b_pyramid=2 / b_adapt=2 / b_bias=0 / direct=3 / weightb=1 / open_gop=0 / weightp=2 / keyint=360 / keyint_min=2 / scenecut=40 / intra_refresh=0 / rc_lookahead=250 / rc=2pass / mbtree=1 / bitrate=5330 / ratetol=1.0 / qcomp=0.70 / qpmin=0 / qpmax=69 / qpstep=4 / cplxblur=20.0 / qblur=0.5 / ip_ratio=1.40 / aq=2:1.00

Audio
ID : 2
Format : AC-3
Format/Info : Audio Coding 3
Mode extension : CM (complete main)
Codec ID : A_AC3
Duration : 1h 44mn
Bit rate mode : Constant
Bit rate : 640 Kbps
Channel(s) : 6 channels
Channel positions : Front: L C R, Side: L R, LFE
Sampling rate : 48.0 KHz
Bit depth : 16 bits
Compression mode : Lossy
Stream size : 479 MiB (11%)
Title : VFF AC3
Language : French

Text
ID : 3
Format : UTF-8
Codec ID : S_TEXT/UTF8
Codec ID/Info : UTF-8 Plain Text
Title : FR COMPLETS
Language : French

Jeux Gratuit
15354131_1854970838071206_1069261547_o.png